Другая женщина / The Other Woman (Ник Кассаветис)[2014, комедия, BDRip] [1080p] | iTunes

 
Автор Сообщение

sergej644 ®

Пол:

Стаж: 4 года 11 месяцев

Сообщений: 6038

Откуда: Soviet Union



Награды: Нет

Торрент-статистика

Создавать темы 22-Июл-2014 12:00

[Цитировать]

-Другая женщина / The Other Woman
Информация о фильме
Название: Другая женщина
Оригинальное название: The Other Woman
Год выхода: 2014
Жанр: Мелодрама, комедия
Режиссер: Ник Кассаветис
В ролях: Кэмерон Диаз, Лесли Манн, Кейт Аптон, Николай Костер-Вальдау, Дон Джонсон, Тейлор Кинни, Ники Минаж, Дэвид Торнтон, Виктор Круз, Оливия Калпо
О фильме:
Любовная связь с женатым мужчиной — это, конечно, не лучший вариант, но вполне допустимый. Гораздо хуже, если у него помимо тебя ещё несколько любовниц. Будучи не в силах смириться с таким положением дел, обманутая женщина жаждет крови и вынашивает план мести. Ради достижения своей цели она объединяется с женой изменника, и этот союз униженных и оскорблённых оказывается для казановы пострашнее атомной войны.

Страна: США
Студия: 20th Century Fox Film Corporation, LBI Productions
Продолжительность: 01:49:07
Перевод: Дублированный [iTunes]

Файл
Кодек: AVC
Качество: BDRip 1080p
Видео: 1920x800, 23.976 fps, 8525 Kbps
Аудио 1: AC3, 48 kHz, 6 ch, 384 Kbps [Russian]
Аудио 2: DTS, 48 kHz, 6 ch, 1510 Kbps [English]
Дополнительно: Сохранены оригинальные чаптеры как на Blu-Ray.

Media Info

General
Unique ID                                : 237248464652111384262493156849752865373 (0xB27C64696776D425AB4AD271AF69FA5D)
Complete name                            : F:The.Other.Woman.2014.D.D.BDRip.1080p.mkv
Format                                   : Matroska
Format version                           : Version 4 / Version 2
File size                                : 7.94 GiB
Duration                                 : 1h 49mn
Overall bit rate                         : 10.4 Mbps
Encoded date                             : UTC 2014-07-17 19:54:28
Writing application                      : mkvmerge v6.8.0 ('Theme for Great Cities') 64bit built on Mar  2 2014 21:34:26
Writing library                          : libebml v1.3.0 + libmatroska v1.4.1
Video
ID                                       : 1
Format                                   : AVC
Format/Info                              : Advanced Video Codec
Format profile                           : High@L4.1
Format settings, CABAC                   : Yes
Format settings, ReFrames                : 5 frames
Codec ID                                 : V_MPEG4/ISO/AVC
Duration                                 : 1h 49mn
Bit rate                                 : 8 525 Kbps
Width                                    : 1 920 pixels
Height                                   : 800 pixels
Display aspect ratio                     : 2.40:1
Frame rate mode                          : Constant
Frame rate                               : 23.976 fps
Color space                              : YUV
Chroma subsampling                       : 4:2:0
Bit depth                                : 8 bits
Scan type                                : Progressive
Bits/(Pixel*Frame)                       : 0.231
Stream size                              : 6.34 GiB (80%)
Writing library                          : x264 core 142 r2431 ac76440
Encoding settings                        : cabac=1 / ref=5 / deblock=1:0:0 / analyse=0x3:0x133 / me=umh / subme=7 / psy=1 / psy_rd=1.00:0.00 / mixed_ref=1 / me_range=16 / chroma_me=1 / trellis=1 / 8x8dct=1 / cqm=0 / deadzone=21,11 / fast_pskip=0 / chroma_qp_offset=-2 / threads=18 / lookahead_threads=3 / sliced_threads=0 / nr=0 / decimate=1 / interlaced=0 / bluray_compat=0 / constrained_intra=0 / bframes=3 / b_pyramid=2 / b_adapt=1 / b_bias=0 / direct=1 / weightb=1 / open_gop=0 / weightp=2 / keyint=250 / keyint_min=23 / scenecut=40 / intra_refresh=0 / rc_lookahead=40 / rc=2pass / mbtree=1 / bitrate=8525 / ratetol=1.0 / qcomp=0.60 / qpmin=0 / qpmax=69 / qpstep=4 / cplxblur=20.0 / qblur=0.5 / ip_ratio=1.40 / aq=1:1.00
Language                                 : English
Default                                  : Yes
Forced                                   : No
Audio #1
ID                                       : 2
Format                                   : AC-3
Format/Info                              : Audio Coding 3
Mode extension                           : CM (complete main)
Format settings, Endianness              : Big
Codec ID                                 : A_AC3
Duration                                 : 1h 49mn
Bit rate mode                            : Constant
Bit rate                                 : 384 Kbps
Channel count                            : 6 channels
Channel positions                        : Front: L C R, Side: L R, LFE
Sampling rate                            : 48.0 KHz
Bit depth                                : 16 bits
Compression mode                         : Lossy
Stream size                              : 300 MiB (4%)
Language                                 : Russian
Default                                  : Yes
Forced                                   : No
Audio #2
ID                                       : 3
Format                                   : DTS
Format/Info                              : Digital Theater Systems
Mode                                     : 16
Format settings, Endianness              : Big
Codec ID                                 : A_DTS
Duration                                 : 1h 49mn
Bit rate mode                            : Constant
Bit rate                                 : 1 509 Kbps
Channel count                            : 6 channels
Channel positions                        : Front: L C R, Side: L R, LFE
Sampling rate                            : 48.0 KHz
Bit depth                                : 24 bits
Compression mode                         : Lossy
Stream size                              : 1.15 GiB (14%)
Language                                 : English
Default                                  : No
Forced                                   : No
Menu
00:00:00.000                             : en:00:00:00.000
00:03:06.186                             : en:00:03:06.186
00:05:45.262                             : en:00:05:45.262
00:07:21.274                             : en:00:07:21.274
00:10:21.371                             : en:00:10:21.371
00:14:17.231                             : en:00:14:17.231
00:16:45.421                             : en:00:16:45.421
00:19:47.686                             : en:00:19:47.686
00:21:18.444                             : en:00:21:18.444
00:24:01.649                             : en:00:24:01.649
00:28:16.862                             : en:00:28:16.862
00:32:34.035                             : en:00:32:34.035
00:35:41.181                             : en:00:35:41.181
00:39:06.261                             : en:00:39:06.261
00:41:54.804                             : en:00:41:54.804
00:44:53.316                             : en:00:44:53.316
00:48:33.369                             : en:00:48:33.369
00:52:33.192                             : en:00:52:33.192
00:55:54.977                             : en:00:55:54.977
00:58:20.789                             : en:00:58:20.789
01:00:20.909                             : en:01:00:20.909
01:03:18.712                             : en:01:03:18.712
01:08:35.528                             : en:01:08:35.528
01:11:03.551                             : en:01:11:03.551
01:14:28.923                             : en:01:14:28.923
01:17:21.053                             : en:01:17:21.053
01:22:13.137                             : en:01:22:13.137
01:26:42.030                             : en:01:26:42.030
01:30:03.523                             : en:01:30:03.523
01:35:01.696                             : en:01:35:01.696
01:42:25.431                             : en:01:42:25.431
01:44:27.470                             : en:01:44:27.470
-

Скриншоты

--
[Профиль] [ЛС]
Показать сообщения:    

Текущее время: Сегодня 22:07

Часовой пояс: GMT



Вы не можете начинать темы
Вы не можете отвечать на сообщения
Вы не можете редактировать свои сообщения
Вы не можете удалять свои сообщения
Вы не можете голосовать в опросах
Вы не можете прикреплять файлы к сообщениям
Вы не можете скачивать файлы