Дрожь земли 5: Кровное родство / Tremors 5: Bloodlines (2015) BDRip 1080p | Лицензия

 
Автор Сообщение

достали все ®

Пол:

Стаж: 1 год 8 месяцев

Сообщений: 6565



Награды: 12 (Подробнее)

Top Releaser 4 (Количество: 1) Mega Seeder 2 (Количество: 1) Top Releaser 2 (Количество: 1)
Торрент-статистика

Создавать темы 30-Мар-2016 03:00

[Цитировать]

Производство: США / Universal 1440 Entertainment
Жанр: ужасы, фантастика, боевик
Режиссер: Дон Майкл Пол
Продюсер: Огден Гавански, Лиза Гудинг, Алан Ширер
Актеры: Майкл Гросс, Джейми Кеннеди, Эрнест Ндлову, Лоуренс Джофф, Зак Хендрикз, Натали Бекер, Эммануэль Кастис, Брэндон Оре, Дэниэл Дженкс, Rea Rangaka, Йен Робертс, Селло Себотсейн
Описание:
Гигантские черви-людоеды, известные как Грабоиды, терроризируют жителей Южной Африки. И самое страшное — это то, что Грабоиды со временем превратились в еще более опасных тварей…

Рейтинг MPAA: PG-13 (детям до 13 лет просмотр нежелателен)
Дата мировой премьеры: 6 октября 2015
Продолжительность: 01:39:02
Качество: BDRip 1080p
Перевод: Дублированный (Лицензия BD CEE)
Вид субтитров: Вшитые, отключаемые
Язык субтитров: Русский, Английский, Румынский
Видео: AVC/H.264, 1920x1080p, (16:9), 10.9 Mbps, 23.976 fps
Аудио: DTS, 6 ch, 768 kbps - Русский
Аудио: DTS, 6 ch, 1509 kbps - Английский

MediaInfo

Format : Matroska
Format version : Version 4 / Version 2
File size : 9.28 GiB
Duration : 1h 39mn
Overall bit rate : 13.4 Mbps
Movie name : released by aldershot
Encoded date : UTC 2016-03-27 17:42:57
Writing application : mkvmerge v6.9.1 ('Blue Panther') 64bit built on Apr 18 2014 18:23:38
Writing library : libebml v1.3.0 + libmatroska v1.4.1
Video
ID : 1
Format : AVC
Format/Info : Advanced Video Codec
Format profile : High@L4.1
Format settings, CABAC : Yes
Format settings, ReFrames : 4 frames
Codec ID : V_MPEG4/ISO/AVC
Duration : 1h 39mn
Bit rate : 10.9 Mbps
Width : 1 920 pixels
Height : 1 080 pixels
Display aspect ratio : 16:9
Frame rate mode : Constant
Frame rate : 23.976 fps
Color space : YUV
Chroma subsampling : 4:2:0
Bit depth : 8 bits
Scan type : Progressive
Bits/(Pixel*Frame) : 0.219
Stream size : 7.52 GiB (81%)
Title : Tremors.5.Bloodlines.2015.BluRay.1080p.DTS-HD.MA.5.1.x264-EPiC@HDArea
Writing library : x264 core 142 r2431+42 c69a006 tMod [8-bit@all X86_64]
Encoding settings : cabac=1 / ref=4 / deblock=1:-3:-3 / analyse=0x3:0x133 / me=umh / subme=11 / psy=1 / fade_compensate=0.00 / psy_rd=0.90:0.00 / mixed_ref=1 / me_range=32 / chroma_me=1 / trellis=2 / 8x8dct=1 / cqm=0 / deadzone=21,11 / fast_pskip=0 / chroma_qp_offset=-2 / threads=12 / lookahead_threads=2 / sliced_threads=0 / nr=0 / decimate=0 / interlaced=0 / bluray_compat=0 / constrained_intra=0 / fgo=0 / bframes=8 / b_pyramid=2 / b_adapt=2 / b_bias=0 / direct=3 / weightb=1 / open_gop=0 / weightp=2 / keyint=240 / keyint_min=23 / scenecut=40 / intra_refresh=0 / rc_lookahead=60 / rc=crf / mbtree=1 / crf=17.2000 / qcomp=0.60 / qpmin=0:0:0 / qpmax=69:69:69 / qpstep=4 / vbv_maxrate=40000 / vbv_bufsize=30000 / crf_max=0.0 / nal_hrd=none / filler=0 / ip_ratio=1.40 / aq=1:0.90 / aq-sensitivity=10.00 / aq-factor=1.00:1.00:1.00 / aq2=0 / aq3=0
Language : English
Default : Yes
Forced : No
Audio #1
ID : 2
Format : DTS
Format/Info : Digital Theater Systems
Mode : 16
Format settings, Endianness : Big
Codec ID : A_DTS
Duration : 1h 39mn
Bit rate mode : Constant
Bit rate : 768 Kbps
Channel(s) : 6 channels
Channel positions : Front: L C R, Side: L R, LFE
Sampling rate : 48.0 KHz
Bit depth : 24 bits
Compression mode : Lossy
Stream size : 544 MiB (6%)
Title : DTS 5.1 @ 768 kbps - DUB, Blu-ray CEE
Language : Russian
Default : Yes
Forced : No
Audio #2
ID : 3
Format : DTS
Format/Info : Digital Theater Systems
Mode : 16
Format settings, Endianness : Big
Codec ID : A_DTS
Duration : 1h 39mn
Bit rate mode : Constant
Bit rate : 1 509 Kbps
Channel(s) : 6 channels
Channel positions : Front: L C R, Side: L R, LFE
Sampling rate : 48.0 KHz
Bit depth : 24 bits
Compression mode : Lossy
Stream size : 1.04 GiB (11%)
Title : DTS 5.1 @ 1536 kbps, Original
Language : Russian
Default : No
Forced : No
Text #1
ID : 4
Format : UTF-8
Codec ID : S_TEXT/UTF8
Codec ID/Info : UTF-8 Plain Text
Title : full
Language : Romanian
Default : No
Forced : No
Text #2
ID : 5
Format : UTF-8
Codec ID : S_TEXT/UTF8
Codec ID/Info : UTF-8 Plain Text
Title : forced
Language : Russian
Default : Yes
Forced : No
Text #3
ID : 6
Format : UTF-8
Codec ID : S_TEXT/UTF8
Codec ID/Info : UTF-8 Plain Text
Title : full
Language : Russian
Default : No
Forced : No
Text #4
ID : 7
Format : UTF-8
Codec ID : S_TEXT/UTF8
Codec ID/Info : UTF-8 Plain Text
Title : SDH
Language : English
Default : No
Forced : No
Menu
00:00:00.000 : en:Chapter 1
00:06:52.537 : en:Chapter 2
00:12:43.179 : en:Chapter 3
00:17:19.247 : en:Chapter 4
00:21:48.724 : en:Chapter 5
00:26:34.426 : en:Chapter 6
00:31:01.777 : en:Chapter 7
00:36:38.905 : en:Chapter 8
00:39:13.309 : en:Chapter 9
00:46:36.919 : en:Chapter 10
00:52:46.038 : en:Chapter 11
00:58:57.534 : en:Chapter 12
01:04:00.587 : en:Chapter 13
01:08:57.967 : en:Chapter 14
01:13:14.974 : en:Chapter 15
01:16:14.445 : en:Chapter 16
01:21:47.027 : en:Chapter 17
01:27:58.857 : en:Chapter 18
01:31:51.756 : en:Chapter 19
01:34:11.729 : en:Chapter 20
Скриншоты:

Время раздачи: 24/7
[Профиль] [ЛС]
Кто просматривает тему:

Форум Тема Автор Размер
Фильмы (HD DVD, Blu-ray и BDRemux) Дрожь земли (Подземные толчки) / Tremors (Рон Андервуд) [1990 г., Ужасы, фантастика,] Blu-Ray (1080) Magnat 34.12 GB
Фильмы (HD Rips | 720p, 1080p) Дрожь земли 5: Кровное родство / Tremors 5: Bloodlines (2015) BDRip 720p | L достали все 3.95 GB
Фильмы (HD Rips | 720p, 1080p) Дрожь земли 5: Кровное родство / Tremors 5: Bloodlines (2015) BDRip 720p | Лицензия достали все 5.65 GB
Фильмы 2015 года Дрожь земли 5: Кровное родство / Tremors 5: Bloodlines (2015) BDRip от Twi7ter | Лицензия Russian Mafia 1.46 GB
Фильмы (HD DVD, Blu-ray и BDRemux) Дрожь земли 5: Кровное родство / Tremors 5: Bloodlines (2015) Blu-Ray Remux 1080p | L Russian Mafia 26.2 GB
Фильмы (HD DVD, Blu-ray и BDRemux) Дрожь земли 5: Кровное родство / Tremors 5: Bloodlines (2015) Blu-ray | Лицензия достали все 37.89 GB
Фильмы 2015 года Дрожь земли 5: Кровное родство / Tremors 5: Bloodlines (2015) HDRip | L Russian Mafia 1.37 GB
R.G.TorrentFilm Video Дрожь земли 5: Кровное родство / Tremors 5: Bloodlines (Дон Майкл Пол / Don Michael Paul) [2015 г., Ужасы, фантастика, боевик, HDRip] Dub (Лицензия) Один 777 751 MB
Показать сообщения:    

Текущее время: Сегодня 14:29

Часовой пояс: GMT



Вы не можете начинать темы
Вы не можете отвечать на сообщения
Вы не можете редактировать свои сообщения
Вы не можете удалять свои сообщения
Вы не можете голосовать в опросах
Вы не можете прикреплять файлы к сообщениям
Вы не можете скачивать файлы