Дримс (Антон Сухарев) [2013, Россия, музыкальная трагикомедия, BDRip 1080p]

 
Автор Сообщение

TorrentFilm ®

Пол:

Стаж: 2 года

Сообщений: 7741



Награды: Нет

Торрент-статистика

Создавать темы 03-Янв-2016 00:06

[Цитировать]

Дримс
Страна: Россия
Студия: Дебошир фильм
Жанр: музыкальная трагикомедия
Год выпуска: 2013
Продолжительность: 1:29:48
Cубтитры: нет
Перевод: Не требуется
Оригинальная аудиодорожка: русский
Режиссер: Антон Сухарев
В ролях: Дэн Дягилев, Анна Иванина, Юозас Будрайтис, Александр Баширов, Игорь Скляр, Ольга Альбанова, Татьяна Рябоконь, Хельга Филиппова, Вадим Сквирский, Сергей Уманов
Описание: Дэн — уличный музыкант-неудачник, живущий воспоминаниями о временах своей молодости. Он ловит попутные машины, намеренно превращая свою жизнь в бесконечный роад-муви, Одиссею на руинах своих грёз. Его путь — это рокерская «мечта с кровью», мечта мальчишек перестройки, звучащая из подворотен голосами Цоя и Шевчука, Башлачёва и Летова… Ему уже под сорок, а он всё ещё с гитарой за спиной, в стоптанных кедах играет в переходах свои надрывные песни.
Аня — начинающая певица, неловкая и смешная, добрая и открытая миру, ранимая, но, одновременно, стойкая. На её пути к мечте немало препятствий — бессмысленные кастинги, вечное безденежье, скитания по общежитиям. Но «ребёнок», живущий внутри Ани помогает ей сохранить себя и заразить своим вдохновением окружающих.
Встретятся ли герои со своей мечтой?
Внимание! В фильме присутствует ненормативная лексика!
Сэмпл: http://multi-up.com/937930
Тип релиза: BDRip 1080p
Контейнер: mp4
Видео: h.264/avc, PAL, 1920x1080, 1080p, 16:9, 10000 kbps, 25 fps
Аудио: Русский, AAC, 2 ch, 48 kHz, 348 kbps

MediaInfo

General
Complete name : G:\свалка\ЗАПИСЬ\мастера\Дримс.mp4
Format : MPEG-4
Format profile : JVT
Codec ID : avc1
File size : 6.52 GiB
Duration : 1h 29mn
Overall bit rate : 10.4 Mbps
Encoded date : UTC 2014-01-07 13:21:49
Tagged date : UTC 2014-01-07 13:21:49
Video
ID : 1
Format : AVC
Format/Info : Advanced Video Codec
Codec ID : avc1
Codec ID/Info : Advanced Video Coding
Duration : 1h 29mn
Bit rate mode : Variable
Bit rate : 9 998 Kbps
Width : 1 920 pixels
Height : 1 080 pixels
Display aspect ratio : 16:9
Frame rate mode : Constant
Frame rate : 25.000 fps
Bits/(Pixel*Frame) : 0.193
Stream size : 6.27 GiB (96%)
Language : English
Encoded date : UTC 2014-01-07 13:21:49
Tagged date : UTC 2014-01-07 13:21:49
Audio
ID : 2
Format : AAC
Format/Info : Advanced Audio Codec
Format version : Version 4
Format profile : LC
Format settings, SBR : No
Codec ID : 40
Duration : 1h 29mn
Bit rate mode : Constant
Bit rate : 384 Kbps
Channel(s) : 2 channels
Channel positions : L R
Sampling rate : 48.0 KHz
Stream size : 247 MiB (4%)
Language : English
Encoded date : UTC 2014-01-07 13:21:49
Tagged date : UTC 2014-01-07 13:21:49

Скриншоты





[Профиль] [ЛС]
Кто просматривает тему:

Показать сообщения:    

Текущее время: Сегодня 16:22

Часовой пояс: GMT



Вы не можете начинать темы
Вы не можете отвечать на сообщения
Вы не можете редактировать свои сообщения
Вы не можете удалять свои сообщения
Вы не можете голосовать в опросах
Вы не можете прикреплять файлы к сообщениям
Вы не можете скачивать файлы