Дрейф / Открытое море 2: Дрейф / Open Water 2: Adrift (2006) BDRip-AVC от MediaClub | D, P2

 
Автор Сообщение

sergej644 ®

Пол:

Стаж: 4 года 11 месяцев

Сообщений: 6045

Откуда: Soviet Union



Награды: Нет

Торрент-статистика

Создавать темы 02-Окт-2014 18:59

[Цитировать]

--Дрейф / Открытое море 2: Дрейф / Open Water 2: Adrift
Информация о фильме
Название: Дрейф / Открытое море 2: Дрейф
Оригинальное название: Open Water 2: Adrift
Год выхода: 2006
Жанр: Триллер, драма
Режиссер: Ганс Хорн
В ролях: Сьюзэн Мэй Прэтт, Ричард Спейт мл., Никлаус Ланж, Али Хиллис, Кэмерон Ричардсон, Эрик Дэйн, Вольфганг Раач, Александра Раач, Альфред Кушири, Келли Вагнер, Маттеа Габарретта, Лука Габаретта, Кристин Спасоевич, Доун Фрэндо, Чарли Формоса, Альфредо Кутийяр, Джо Формоса, Мануэль Кусто, Фурто Грима, Костанзо Галеа
О фильме: Группа приятелей собирается вместе, потому что один из них празднует свое тридцатилетие. Они арендуют яхту и выходят в открытое море. Они начинают купаться, и только когда все уже попрыгали в воду и накупавшись захотели обратно обнаружили, что забыли опустить лестницу… Теперь никто не может попасть обратно на яхту, потому что ее борта слишком высоки. Битва вокруг жизни и смерти разворачивается на море. Кто же доживет до конца этой страшной поездки?..

Страна: США
Студия: Orange Pictures, Peter Rommel Productions, Shotgun Pictures, Universum Film (UFA)
Продолжительность: 01:34:36
Перевод: Дублированный, профессиональный друхголосый
Файл
Кодек: MPEG-4 AVC
Качество: BDRip-AVC
Видео: 3100 Кбит/с, 1024х436, 23.976 кадр/с
Звук:
Аудио #1: Русский (AC3, 6 ch, 448 Кбит/с) / Дублированный
Аудио #2: Русский (AC3, 2 ch, 192 Кбит/с) / Профессиональный двухголосый
Аудио #3: Английский (AC3, 6 ch, 448 Кбит/с)
Субтитры: Русские, английские
Семпл

MediaInfo:

Общее
Уникальный идентификатор                 : 184798782074467790291755750389453371030 (0x8B06F3682D13BCB3BC12AB2129A73696)
Полное имя                               : D:2Films DРелизыOtkrytye.vody.2.Drejf.2006.x264.BDRip.AVC.MediaClub.mkv
Формат                                   : Matroska
Версия формата                           : Version 4 / Version 2
Размер файла                             : 2,77 Гбайт
Продолжительность                        : 1 ч. 34 м.
Общий поток                              : 4189 Кбит/сек
Название фильма                          : -= MediaClub =- rip by Lefevr
Дата кодирования                         : UTC 2014-09-18 13:49:35
Программа кодирования                    : mkvmerge v6.6.0 ('The Edge Of The In Between') built on Dec  1 2013 17:55:00
Библиотека кодирования                   : libebml v1.3.0 + libmatroska v1.4.1
Видео
Идентификатор                            : 1
Формат                                   : AVC
Формат/Информация                        : Advanced Video Codec
Профиль формата                          : High@L4.1
Параметр CABAC формата                   : Да
Параметр ReFrames формата                : 9 кадров
Идентификатор кодека                     : V_MPEG4/ISO/AVC
Продолжительность                        : 1 ч. 34 м.
Битрейт                                  : 3100 Кбит/сек
Ширина                                   : 1024 пикселя
Высота                                   : 436 пикселей
Соотношение сторон                       : 2,35:1
Режим частоты кадров                     : Постоянный
Частота кадров                           : 23,976 кадра/сек
Цветовое пространство                    : YUV
Субдискретизация насыщенности            : 4:2:0
Битовая глубина                          : 8 бит
Тип развёртки                            : Прогрессивная
Бит/(Пиксели*Кадры)                      : 0.290
Размер потока                            : 1,99 Гбайт (72%)
Заголовок                                : Otkrytye.vody.2.Drejf.2006.x264.BDRip.AVC.MediaClub
Библиотека кодирования                   : x264 core 142 r2409+42 04be48a tMod [8-bit@4:2:0 X86]
Настройки программы                      : cabac=1 / ref=9 / deblock=1:-3:-3 / analyse=0x3:0x133 / me=umh / subme=11 / psy=1 / fade_compensate=0.00 / psy_rd=1.00:0.25 / mixed_ref=1 / me_range=32 / chroma_me=1 / trellis=2 / 8x8dct=1 / cqm=0 / deadzone=21,11 / fast_pskip=0 / chroma_qp_offset=-4 / threads=6 / lookahead_threads=1 / sliced_threads=0 / nr=0 / decimate=0 / interlaced=0 / bluray_compat=0 / constrained_intra=0 / fgo=0 / bframes=8 / b_pyramid=2 / b_adapt=2 / b_bias=0 / direct=3 / weightb=1 / open_gop=0 / weightp=2 / keyint=240 / keyint_min=23 / scenecut=40 / intra_refresh=0 / rc=2pass / mbtree=0 / bitrate=3100 / ratetol=1.0 / qcomp=0.60 / qpmin=0:0:0 / qpmax=69:69:69 / qpstep=4 / cplxblur=20.0 / qblur=0.5 / ip_ratio=1.40 / pb_ratio=1.30 / aq=1:1.00 / aq-sensitivity=10.00 / aq-factor=1.00:1.00:1.00 / aq2=0 / aq3=0
Язык                                     : English
Default                                  : Да
Forced                                   : Да
Аудио #1
Идентификатор                            : 2
Формат                                   : AC-3
Формат/Информация                        : Audio Coding 3
Расширение режима                        : CM (complete main)
Параметр Endianness формата              : Big
Идентификатор кодека                     : A_AC3
Продолжительность                        : 1 ч. 34 м.
Вид битрейта                             : Постоянный
Битрейт                                  : 448 Кбит/сек
Каналы                                   : 6 каналов
Расположение каналов                     : Front: L C R, Side: L R, LFE
Частота                                  : 48,0 КГц
Битовая глубина                          : 16 бит
Метод сжатия                             : С потерями
Размер потока                            : 303 Мбайт (11%)
Заголовок                                : TRACK_01_DUB_RUS_WestVideo
Язык                                     : Russian
Default                                  : Да
Forced                                   : Да
Аудио #2
Идентификатор                            : 3
Формат                                   : AC-3
Формат/Информация                        : Audio Coding 3
Расширение режима                        : CM (complete main)
Параметр Endianness формата              : Big
Идентификатор кодека                     : A_AC3
Продолжительность                        : 1 ч. 34 м.
Вид битрейта                             : Постоянный
Битрейт                                  : 192 Кбит/сек
Каналы                                   : 2 канала
Расположение каналов                     : Front: L R
Частота                                  : 48,0 КГц
Битовая глубина                          : 16 бит
Метод сжатия                             : С потерями
Размер потока                            : 130 Мбайт (5%)
Заголовок                                : TRACK_02_DVO_RUS
Язык                                     : Russian
Default                                  : Нет
Forced                                   : Нет
Аудио #3
Идентификатор                            : 4
Формат                                   : AC-3
Формат/Информация                        : Audio Coding 3
Расширение режима                        : CM (complete main)
Параметр Endianness формата              : Big
Идентификатор кодека                     : A_AC3
Продолжительность                        : 1 ч. 34 м.
Вид битрейта                             : Постоянный
Битрейт                                  : 448 Кбит/сек
Каналы                                   : 6 каналов
Расположение каналов                     : Front: L C R, Side: L R, LFE
Частота                                  : 48,0 КГц
Битовая глубина                          : 16 бит
Метод сжатия                             : С потерями
Размер потока                            : 303 Мбайт (11%)
Заголовок                                : TRACK_03_ORIGINAL_ENG
Язык                                     : English
Default                                  : Нет
Forced                                   : Нет
Текст #1
Идентификатор                            : 5
Формат                                   : UTF-8
Идентификатор кодека                     : S_TEXT/UTF8
Идентификатор кодека/Информация          : UTF-8 Plain Text
Заголовок                                : TEXT_01_SUB_RUS
Язык                                     : Russian
Default                                  : Нет
Forced                                   : Нет
Текст #2
Идентификатор                            : 6
Формат                                   : UTF-8
Идентификатор кодека                     : S_TEXT/UTF8
Идентификатор кодека/Информация          : UTF-8 Plain Text
Заголовок                                : TEXT_02_SUB_ENG
Язык                                     : English
Default                                  : Нет
Forced                                   : Нет
Меню
00:00:00.000                             : en:Chapter 01
00:07:08.386                             : en:Chapter 02
00:13:22.218                             : en:Chapter 03
00:17:12.322                             : en:Chapter 04
00:23:54.975                             : en:Chapter 05
00:28:36.423                             : en:Chapter 06
00:33:21.082                             : en:Chapter 07
00:38:40.443                             : en:Chapter 08
00:43:21.932                             : en:Chapter 09
00:52:53.003                             : en:Chapter 10
01:00:38.593                             : en:Chapter 11
01:04:27.113                             : en:Chapter 12
01:08:22.848                             : en:Chapter 13
01:12:18.834                             : en:Chapter 14
01:20:01.046                             : en:Chapter 15
01:25:16.277                             : en:Chapter 16
01:34:36.253                             : en:Chapter 17

Скриншоты

Релиз от: | Автор рипа:
[Профиль] [ЛС]

Создавать темы 06-Авг-2015 23:06 (спустя 10 месяцев 4 дня)

Топик был перенесен из форума Фильмы до 2014 года в форум Фильмы до 2012 года
sergej644
 
Показать сообщения:    

Текущее время: Сегодня 16:27

Часовой пояс: GMT



Вы не можете начинать темы
Вы не можете отвечать на сообщения
Вы не можете редактировать свои сообщения
Вы не можете удалять свои сообщения
Вы не можете голосовать в опросах
Вы не можете прикреплять файлы к сообщениям
Вы не можете скачивать файлы