Дракула / Dracula Untold (2014) HDRip

 
Автор Сообщение

sergej644 ®

Пол:

Стаж: 4 года 11 месяцев

Сообщений: 6046

Откуда: Soviet Union



Награды: Нет

Торрент-статистика

Создавать темы 18-Янв-2015 02:12

[Цитировать]

-Дракула / Dracula Untold (2014) HDRip- Производство: США | Universal Pictures, Legendary Pictures, Michael De Luca Productions
Жанр: Ужасы, Фэнтези, Боевик
Перевод: Дублированный (iTunes Russia)
Субтитры: Отсутствуют
Дата мировой премьеры: 1 октября 2014
Дата российской премьеры: 9 октября 2014, «UPI»
Дата выхода DVD релиза: 29 января 2015, «Двадцатый Век Фокс СНГ»
Режиссер: Гари Шор
Продюсер: Майкл Де Лука, Джозеф М. Карачиоло мл., Джон Дж. Джашни
Актеры: Люк Эванс, Сара Гадон, Доминик Купер, Арт Паркинсон, Чарльз Дэнс,
Дайармейд Мерта, Пол Кэй, Уильям Хьюстон, Ной Хантли, Ронан Вайберт
Описание фильма:
Влад Дракула был величайшим правителем, доблестным воином и страстным мужчиной.
Но судьба свела его с врагом, коварство которого не знало границ.
И тогда Дракула заключил сделку — нечеловеческая сила в обмен на самую малость —
бессмертную душу…

Продолжительность: 01:32:08
Качество видео: HDRip
Видеокодек: XviD
Битрейт видео: ~1730 Кбит/с
Размер кадра: 720x304
Аудио: Русский AC3, 6 ch, 384 Кбит/с-

MediaInfo:

General
Complete name : E:\12\Dracula.2104.D.HDRip.1400Mb.avi
Format : AVI
Format/Info : Audio Video Interleave
File size : 1.37 GiB
Duration : 1h 32mn
Overall bit rate : 2 124 Kbps
Writing application : VirtualDubMod 1.5.10.2 (build 2540/release)
Writing library : VirtualDubMod build 2540/release
Video
ID : 0
Format : MPEG-4 Visual
Format profile : Advanced Simple@L5
Format settings, BVOP : Yes
Format settings, QPel : No
Format settings, GMC : No warppoints
Format settings, Matrix : Default (MPEG)
Codec ID : XVID
Codec ID/Hint : XviD
Duration : 1h 32mn
Bit rate : 1 731 Kbps
Width : 720 pixels
Height : 304 pixels
Display aspect ratio : 2.35:1
Frame rate : 23.976 fps
Resolution : 8 bits
Colorimetry : 4:2:0
Scan type : Progressive
Bits/(Pixel*Frame) : 0.330
Stream size : 1.11 GiB (81%)
Writing library : XviD 1.2.1 (UTC 2008-12-04)
Audio
ID : 1
Format : AC-3
Format/Info : Audio Coding 3
Codec ID : 2000
Duration : 1h 32mn
Bit rate mode : Constant
Bit rate : 384 Kbps
Channel(s) : 6 channels
Channel positions : Front: L C R, Surround: L R, LFE
Sampling rate : 48.0 KHz
Stream size : 253 MiB (18%)
Alignment : Split accross interleaves
Interleave, duration : 42 ms (1.00 video frame)
Interleave, preload duration : 500 ms
-Скриншоты:
Время раздачи: 24/7 - круглосуточно
[Профиль] [ЛС]
Кто просматривает тему:

Форум Тема Автор Размер
Фильмы 2014 года Дракула / Dracula Untold (Гари Шор / Gary Shore) [2014, США, Ужасы, Фэнтези, Боевик, Драма, WEB-DLRip-AVC] Dub TorrentFilm 1.46 GB
Фильмы 2014 года Дракула / Dracula Untold (Гари Шор / Gary Shore) [2014, США, ужасы, фэнтези, боевик, драма, военный, WEB-DLRip] DUB (iTunes) TorrentFilm 1.46 GB
Фильмы 2014 года Дракула / Dracula Untold (Гари Шор) [2014 г., Ужасы,Драма,Фэнтези, HDRip] BOSS 1.45 GB
Зарубежные Дракула 3D в 3Д / Dracula 3D (Дарио Ардженто / Dario Argento) [2012, Ужасы, Триллер, Мелодрама, BDrip-AVC] Half OverUnder / Вертикальная анаморфная стереопара TorrentFilm 10.74 GB
Фильмы (HD Rips | 720p, 1080p) Дракула Брэма Стокера / Bram Stoker's Dracula (1992) BDRip 720p | Лицензия Russian Mafia 3.27 GB
R.G.TorrentFilm Video Дракула: Мертвый и довольный / Dracula: Dead and Loving It (Мэл Брукс) [1995 г., комедия, фэнтези, DVDRip-AVC] [MVO, DVO, AVO] Bathory 2.18 GB
Другие симуляторы Невероятный Дракула 2. Последний звонок. Коллекционное издание (2016) PC достали все 661 MB
Фильмы 2011 года Фраккия против Дракулы / Fracchia contro Dracula (Нери Паренти) [1985 г., комедия, DVDRip-AVC] [DVO, AVO] Bathory 1.46 GB
Показать сообщения:    

Текущее время: Сегодня 05:20

Часовой пояс: GMT



Вы не можете начинать темы
Вы не можете отвечать на сообщения
Вы не можете редактировать свои сообщения
Вы не можете удалять свои сообщения
Вы не можете голосовать в опросах
Вы не можете прикреплять файлы к сообщениям
Вы не можете скачивать файлы