Дракула / Dracula Untold (Гари Шор / Gary Shore) [2014, США, ужасы, фэнтези, боевик, драма, военный, WEB-DLRip] DUB (iTunes)

 
Автор Сообщение

TorrentFilm ®

Пол:

Стаж: 2 года

Сообщений: 7741



Награды: Нет

Торрент-статистика

Создавать темы 21-Дек-2014 02:15

[Цитировать]

Дракула / Dracula Untold
«Легенда обретёт бессмертие»-
-
-
-
-- Страна: США
Жанр: ужасы, фэнтези, боевик, драма, военный
Год выпуска: 2014
Продолжительность: 01:32:09
Перевод: Профессиональный (дублированный) (iTunes)
Cубтитры: нет
Оригинальная аудиодорожка: нет
Режиссер: Гари Шор / Gary Shore
В ролях: Люк Эванс, Сара Гадон, Доминик Купер, Арт Паркинсон, Чарльз Дэнс, Дайармейд Мерта, Пол Кэй, Уильям Хьюстон, Ной Хантли, Ронан Вайберт
Описание: Влад Дракула был величайшим правителем, доблестным воином и страстным мужчиной. Но судьба свела его с врагом, коварство которого не знало границ. И тогда Дракула заключил сделку — нечеловеческая сила в обмен на самую малость — бессмертную душу…

Качество видео: WEB-DLRip
Формат видео: AVI
Видео: 720x304 (2.37:1), 23.976 fps, XviD build 50 ~1875 kbps avg, 0.36 bit/pixel
Аудио: 48 kHz, AC3 Dolby Digital, 3/2 (L,C,R,l,r) + LFE ch, ~384 kbps

MediaInfo

Формат : AVI
Формат/Информация : Audio Video Interleave
Размер файла : 1,46 Гбайт
Продолжительность : 1 ч. 32 м.
Общий поток : 2269 Кбит/сек
Программа кодирования : VirtualDubMod 1.5.10.3 | www.virtualdub-fr.org || (build 2550/release)
Библиотека кодирования : VirtualDubMod build 2550/release
Видео
Идентификатор : 0
Формат : MPEG-4 Visual
Профиль формата : Advanced Simple@L5
Параметр BVOP формата : 2
Параметр QPel формата : Нет
Параметр GMC формата : Без точки перехода
Параметр матрицы формата : Default (MPEG)
Идентификатор кодека : XVID
Идентификатор кодека/Подсказка : XviD
Продолжительность : 1 ч. 32 м.
Битрейт : 1876 Кбит/сек
Ширина : 720 пикселей
Высота : 304 пикселя
Соотношение сторон : 2,35:1
Частота кадров : 23,976 кадра/сек
Цветовое пространство : YUV
Субдискретизация насыщенности : 4:2:0
Битовая глубина : 8 бит
Тип развёртки : Прогрессивная
Метод сжатия : С потерями
Бит/(Пиксели*Кадры) : 0.357
Размер потока : 1,21 Гбайт (83%)
Библиотека кодирования : XviD 1.2.1 (UTC 2008-12-04)
Аудио
Идентификатор : 1
Формат : AC-3
Формат/Информация : Audio Coding 3
Расширение режима : CM (complete main)
Параметр Endianness формата : Big
Идентификатор кодека : 2000
Продолжительность : 1 ч. 32 м.
Вид битрейта : Постоянный
Битрейт : 384 Кбит/сек
Каналы : 6 каналов
Расположение каналов : Front: L C R, Side: L R, LFE
Частота : 48,0 КГц
Битовая глубина : 16 бит
Метод сжатия : С потерями
Размер потока : 253 Мбайт (17%)
Выравнивание : Разделение по промежуткам
Продолжительность промежутка : 42 мс. (1,00 видеокадр)
Время предзагрузки промежутка : 500 мс.

Скриншоты

[Профиль] [ЛС]
Кто просматривает тему:

Форум Тема Автор Размер
Фильмы 2014 года Дракула / Dracula Untold (2014) HDRip sergej644 1.37 GB
Фильмы 2014 года Дракула / Dracula Untold (Гари Шор / Gary Shore) [2014, США, Ужасы, Фэнтези, Боевик, Драма, WEB-DLRip-AVC] Dub TorrentFilm 1.46 GB
Фильмы 2014 года Дракула / Dracula Untold (Гари Шор) [2014 г., Ужасы,Драма,Фэнтези, HDRip] BOSS 1.45 GB
Зарубежные Дракула 3D в 3Д / Dracula 3D (Дарио Ардженто / Dario Argento) [2012, Ужасы, Триллер, Мелодрама, BDrip-AVC] Half OverUnder / Вертикальная анаморфная стереопара TorrentFilm 10.74 GB
Фильмы (HD Rips | 720p, 1080p) Дракула Брэма Стокера / Bram Stoker's Dracula (1992) BDRip 720p | Лицензия Russian Mafia 3.27 GB
R.G.TorrentFilm Video Дракула: Мертвый и довольный / Dracula: Dead and Loving It (Мэл Брукс) [1995 г., комедия, фэнтези, DVDRip-AVC] [MVO, DVO, AVO] Bathory 2.18 GB
Другие симуляторы Невероятный Дракула 2. Последний звонок. Коллекционное издание (2016) PC достали все 661 MB
Фильмы 2011 года Фраккия против Дракулы / Fracchia contro Dracula (Нери Паренти) [1985 г., комедия, DVDRip-AVC] [DVO, AVO] Bathory 1.46 GB
Показать сообщения:    

Текущее время: Сегодня 15:44

Часовой пояс: GMT



Вы не можете начинать темы
Вы не можете отвечать на сообщения
Вы не можете редактировать свои сообщения
Вы не можете удалять свои сообщения
Вы не можете голосовать в опросах
Вы не можете прикреплять файлы к сообщениям
Вы не можете скачивать файлы