Драконы Нью-Йорка / Revenge of the Green Dragons (Вэй Кеунг Лау, Эндрю Лу)[2014,боевик, драма, криминал] BDRip 1080p | Чистый звук

 
Автор Сообщение

Richi Keeper ®

Пол:

Стаж: 1 год 6 месяцев

Сообщений: 57

Откуда: Томская область



Награды: Нет

Торрент-статистика

Создавать темы 11-Июн-2015 16:37

[Цитировать]

Информация о фильме
Название: Драконы Нью-Йорка
Оригинальное название: Revenge of the Green Dragons
Год выхода: 2014
Жанр: боевик, драма, криминал
Режиссер: Вэй Кеунг Лау, Эндрю Лу
В ролях: Джастин Чон, Кевин Ву, Гарри Шам мл., Рэй Лиотта, Джин Онг, Сюя Чанг, Карл Ли, Леонард Ву, Евгения Йуан, Селия Ау
О фильме: История двух братьев-эмигрантов Сонни и Стивена, отправившихся в конце 80-х годов в Нью-Йорк за американской мечтой. В поисках лучшей жизни они влились в банду Чайна-тауна «Зеленые драконы». Делая успехи на новом поприще, Сонни опрометчиво влюбляется «не в ту» девушку, и родные братья становятся злейшими врагами. Сонни начинает мстить своей банде, которая взрастила его и сделала тем, кем он является. Американская мечта братьев сбывается, но действительно ли они хотели этого?

Выпущено: США, Гонконг / IM Global, Martin Scorsese
Продолжительность: 01:34:50
Озвучивание: Дублированное [Чистый звук] Официальное
Файл
Формат: MKV
Качество: BDRip 1080p [HDA]
Видео: 12,9 Mb/s, 1920x800
Аудио: Russian: AC3, 384 Kb/s (2 ch), English: DTS, 1509 Kb/s (6 ch)
Размер: 9,97 GB
Скачать: Cэмпл---

Media Info

Общее
Уникальный идентификатор : 241079023968192207503038702375178683306 (0xB55E21913CCF45548CFFCC4F955943AA)
Полное имя : C:ТоррентыДраконы Нью-Йорка.2014.D.BDRip.1080p.mkv
Формат : Matroska
Версия формата : Version 4 / Version 2
Размер файла : 9,97 Гбайт
Продолжительность : 1 ч. 34 м.
Общий поток : 15,1 Мбит/сек
Дата кодирования : UTC 2015-06-11 11:50:37
Программа кодирования : mkvmerge v7.9.0 ('Birds') 64bit
Библиотека кодирования : libebml v1.3.1 + libmatroska v1.4.2
_STATISTICS_WRITING_APP : mkvmerge v7.9.0 ('Birds') 64bit
_STATISTICS_WRITING_DATE_UTC : 2015-06-11 11:50:37
_STATISTICS_TAGS : BPS DURATION NUMBER_OF_FRAMES NUMBER_OF_BYTES
DURATION : 01:27:19.942000000
NUMBER_OF_FRAMES : 851
NUMBER_OF_BYTES : 29402
Видео
Идентификатор : 1
Формат : AVC
Формат/Информация : Advanced Video Codec
Профиль формата : High@L4.1
Параметр CABAC формата : Да
Параметр ReFrames формата : 5 кадров
Идентификатор кодека : V_MPEG4/ISO/AVC
Продолжительность : 1 ч. 34 м.
Битрейт : 12,9 Мбит/сек
Ширина : 1920 пикселей
Высота : 800 пикселей
Соотношение сторон : 2,40:1
Режим частоты кадров : Постоянный
Частота кадров : 23,976 кадра/сек
Цветовое пространство : YUV
Субдискретизация насыщенности : 4:2:0
Битовая глубина : 8 бит
Тип развёртки : Прогрессивная
Бит/(Пиксели*Кадры) : 0.349
Размер потока : 8,52 Гбайт (85%)
Библиотека кодирования : x264 core 142 r2431kMod ac76440
Настройки программы : cabac=1 / ref=5 / deblock=1:-3:-3 / analyse=0x3:0x133 / me=umh / subme=11 / psy=1 / fade_compensate=0.00 / psy_rd=1.05:0.00 / mixed_ref=1 / me_range=24 / chroma_me=1 / trellis=2 / 8x8dct=1 / cqm=0 / deadzone=21,11 / fast_pskip=0 / chroma_qp_offset=-2 / threads=18 / lookahead_threads=3 / sliced_threads=0 / nr=0 / decimate=0 / interlaced=0 / bluray_compat=0 / constrained_intra=0 / fgo=0 / bframes=8 / b_pyramid=2 / b_adapt=2 / b_bias=0 / direct=3 / weightb=1 / open_gop=0 / weightp=2 / keyint=250 / keyint_min=23 / scenecut=40 / intra_refresh=0 / rc=crf / mbtree=0 / crf=17.2000 / qcomp=0.65 / qpmin=0 / qpmax=69 / qpstep=4 / ip_ratio=1.20 / pb_ratio=1.10 / aq=1:0.75
Язык : English
Default : Да
Forced : Нет
_STATISTICS_WRITING_APP : mkvmerge v7.9.0 ('Birds') 64bit
_STATISTICS_WRITING_DATE_UTC : 2015-06-11 11:50:37
_STATISTICS_TAGS : BPS DURATION NUMBER_OF_FRAMES NUMBER_OF_BYTES
DURATION : 01:34:50.477000000
NUMBER_OF_FRAMES : 136435
NUMBER_OF_BYTES : 9357676236
Аудио #1
Идентификатор : 2
Формат : AC-3
Формат/Информация : Audio Coding 3
Расширение режима : CM (complete main)
Параметр Endianness формата : Big
Идентификатор кодека : A_AC3
Продолжительность : 1 ч. 34 м.
Вид битрейта : Постоянный
Битрейт : 384 Кбит/сек
Каналы : 2 канала
Расположение каналов : Front: L R
Частота : 48,0 КГц
Метод сжатия : С потерями
Размер потока : 260 Мбайт (3%)
Заголовок : Line
Язык : Russian
Default : Да
Forced : Нет
Аудио #2
Идентификатор : 3
Формат : DTS
Формат/Информация : Digital Theater Systems
Режим : 16
Параметр Endianness формата : Big
Идентификатор кодека : A_DTS
Продолжительность : 1 ч. 34 м.
Вид битрейта : Постоянный
Битрейт : 1509 Кбит/сек
Каналы : 6 каналов
Расположение каналов : Front: L C R, Side: L R, LFE
Частота : 48,0 КГц
Битовая глубина : 24 бит
Метод сжатия : С потерями
Размер потока : 1024 Мбайт (10%)
Язык : English
Default : Нет
Forced : Нет
Текст
Идентификатор : 4
Формат : UTF-8
Идентификатор кодека : S_TEXT/UTF8
Идентификатор кодека/Информация : UTF-8 Plain Text
Язык : English
Default : Нет
Forced : Нет
Меню
00:00:00.000 : en:00:00:00.000
00:04:23.054 : en:00:04:23.054
00:10:50.483 : en:00:10:50.483
00:16:46.088 : en:00:16:46.088
00:20:59.675 : en:00:20:59.675
00:26:03.437 : en:00:26:03.437
00:33:06.276 : en:00:33:06.276
00:40:13.953 : en:00:40:13.953
00:45:44.367 : en:00:45:44.367
00:51:39.430 : en:00:51:39.430
00:58:09.820 : en:00:58:09.820
01:03:30.932 : en:01:03:30.932
01:07:12.487 : en:01:07:12.487
01:14:33.719 : en:01:14:33.719
01:20:16.311 : en:01:20:16.311
01:25:08.770 : en:01:25:08.770
--- --- -
[Профиль] [ЛС]

Создавать темы 11-Июн-2015 17:44 (спустя 1 час 6 минут)

Топик был перенесен из форума Фильмы 2014 года в форум Фильмы (HDRip, ВDRip | 720p, 1080p)
sergej644
 
Показать сообщения:    

Текущее время: Сегодня 07:03

Часовой пояс: GMT



Вы не можете начинать темы
Вы не можете отвечать на сообщения
Вы не можете редактировать свои сообщения
Вы не можете удалять свои сообщения
Вы не можете голосовать в опросах
Вы не можете прикреплять файлы к сообщениям
Вы не можете скачивать файлы