Драконы Камелота / Dragons of Camelot (2014) BDRip-AVC | P

 
Автор Сообщение

Russian Mafia ®

Пол:

Стаж: 1 год 8 месяцев

Сообщений: 4256



Награды: 10 (Подробнее)

Top Releaser 4 (Количество: 1) Mega Seeder 3 (Количество: 1) Top Releaser 5 (Количество: 1)
Торрент-статистика

Создавать темы 03-Авг-2016 15:01

[Цитировать]

Информация о фильме
Название: Драконы Камелота
Оригинальное название: Dragons of Camelot
Год выхода: 2014
Жанр: фэнтези
Режиссер: Марк Л. Лестер
В ролях: Марк Гриффин, Джеймс Нитти, Сандра Дарнелл, Том Латимер, Селина Джайлс, Андрей Джарвис, Крейг Райдер, Ник Корнуолл, Уильям Хью, Дилан Джонс, Саймон Блад Девей, Энди Батчер, Уильям Б. Ханнаби, Кристофер Хьюз
О фильме: Королевство Камелота погружено в тьму после смерти благородного короля Артура. Правление перешло в руки жестокой колдуньи, сестры Морган. Командуя тремя могущественными драконами с помощью темной магии, она охотится на оставшихся рыцарей Круглого стола. Юный Галахад понимает, что для того, чтобы добиться успеха, он должен найти других рыцарей и отца, Ланселота, который был в изгнании в течение многих лет. Только тогда они смогут вернуться в Камелот, убить Морган и ее драконов и спасти леди Гвиневер и волшебника Мерлина.

Страна: США / Titan Global Entertainment
Продолжительность: 01:20:21
Перевод: Профессиональный (многоголосый, закадровый) [официальный звук]
Файл
Качество: BDRip-AVC
Формат: MKV
Видео: AVC, 2455 Kb/s, 1024x576
Звук: Russian: AC3, 192 Kb/s (2 ch), English: AC3, 448 Kb/s (6 ch)
Субтитры: English
Дополнительно: Сохранены оригинальные главы (чаптеры)

MediaInfo:

Format : Matroska
Format version : Version 4 / Version 2
File size : 1.74 GiB
Duration : 1 h 20 min
Overall bit rate : 3 093 kb/s
Movie name : Rip by basma4i
Encoded date : UTC 2016-08-03 12:13:47
Writing application : mkvmerge v9.3.1 ('Mask Machine') 64bit
Writing library : libebml v1.3.4 + libmatroska v1.4.5
Video
ID : 1
Format : AVC
Format/Info : Advanced Video Codec
Format profile : High@L4.1
Format settings, CABAC : Yes
Format settings, ReFrames : 10 frames
Codec ID : V_MPEG4/ISO/AVC
Duration : 1 h 20 min
Bit rate : 2 455 kb/s
Width : 1 024 pixels
Height : 576 pixels
Display aspect ratio : 16:9
Frame rate mode : Constant
Frame rate : 23.976 (24000/1001) FPS
Color space : YUV
Chroma subsampling : 4:2:0
Bit depth : 8 bits
Scan type : Progressive
Bits/(Pixel*Frame) : 0.174
Stream size : 1.38 GiB (79%)
Title : Enigma
Writing library : x264 core 133 r2334 a3ac64b
Encoding settings : cabac=1 / ref=10 / deblock=1:-2:-2 / analyse=0x3:0x113 / me=umh / subme=10 / psy=1 / psy_rd=1.05:0.15 / mixed_ref=1 / me_range=32 / chroma_me=1 / trellis=2 / 8x8dct=1 / cqm=0 / deadzone=21,11 / fast_pskip=0 / chroma_qp_offset=-3 / threads=12 / lookahead_threads=2 / sliced_threads=0 / nr=0 / decimate=0 / interlaced=0 / bluray_compat=0 / constrained_intra=0 / bframes=8 / b_pyramid=2 / b_adapt=2 / b_bias=0 / direct=3 / weightb=1 / open_gop=0 / weightp=2 / keyint=240 / keyint_min=23 / scenecut=40 / intra_refresh=0 / rc_lookahead=40 / rc=2pass / mbtree=0 / bitrate=2455 / ratetol=1.0 / qcomp=0.60 / qpmin=0 / qpmax=51 / qpstep=4 / cplxblur=20.0 / qblur=0.5 / vbv_maxrate=50000 / vbv_bufsize=62500 / nal_hrd=none / ip_ratio=1.40 / pb_ratio=1.30 / aq=1:1.00
Language : English
Default : Yes
Forced : No
Color range : Limited
Color primaries : BT.709
Transfer characteristics : BT.709
Matrix coefficients : BT.709
Audio #1
ID : 2
Format : AC-3
Format/Info : Audio Coding 3
Mode extension : CM (complete main)
Format settings, Endianness : Big
Codec ID : A_AC3
Duration : 1 h 20 min
Bit rate mode : Constant
Bit rate : 192 kb/s
Channel(s) : 2 channels
Channel positions : Front: L R
Sampling rate : 48.0 kHz
Frame rate : 31.250 FPS (1536 spf)
Compression mode : Lossy
Stream size : 110 MiB (6%)
Default : Yes
Forced : No
Audio #2
ID : 3
Format : AC-3
Format/Info : Audio Coding 3
Mode extension : CM (complete main)
Format settings, Endianness : Big
Codec ID : A_AC3
Duration : 1 h 20 min
Bit rate mode : Constant
Bit rate : 448 kb/s
Channel(s) : 6 channels
Channel positions : Front: L C R, Side: L R, LFE
Sampling rate : 48.0 kHz
Frame rate : 31.250 FPS (1536 spf)
Compression mode : Lossy
Stream size : 257 MiB (14%)
Language : English
Default : No
Forced : No
Text
ID : 4
Format : UTF-8
Codec ID : S_TEXT/UTF8
Codec ID/Info : UTF-8 Plain Text
Duration : 1 h 15 min
Bit rate : 47 b/s
Count of elements : 1028
Stream size : 26.3 KiB (0%)
Language : English
Default : No
Forced : No
Menu
00:00:00.000 : en:Chapter 1
00:07:40.751 : en:Chapter 2
00:13:47.576 : en:Chapter 3
00:20:48.789 : en:Chapter 4
00:27:22.807 : en:Chapter 5
00:33:40.143 : en:Chapter 6
00:40:14.495 : en:Chapter 7
00:47:01.026 : en:Chapter 8
00:55:16.938 : en:Chapter 9
01:02:48.681 : en:Chapter 10
01:09:41.177 : en:Chapter 11
01:15:49.127 : en:Chapter 12
01:20:20.565 : en:Chapter 13

Скриншоты

[Профиль] [ЛС]
Показать сообщения:    

Текущее время: Сегодня 08:52

Часовой пояс: GMT



Вы не можете начинать темы
Вы не можете отвечать на сообщения
Вы не можете редактировать свои сообщения
Вы не можете удалять свои сообщения
Вы не можете голосовать в опросах
Вы не можете прикреплять файлы к сообщениям
Вы не можете скачивать файлы