Драконы Камелота / Dragons of Camelot (2014) HDRip | P

 
Автор Сообщение

Russian Mafia ®

Пол:

Стаж: 1 год 8 месяцев

Сообщений: 4246



Награды: 10 (Подробнее)

За внесенный вклад в развитие сайта (Количество: 1) Top Releaser 2 (Количество: 1) Mega Seeder 2 (Количество: 1)
Торрент-статистика

Создавать темы 03-Авг-2016 05:29

[Цитировать]

Информация о фильме
Название: Драконы Камелота
Оригинальное название: Dragons of Camelot
Год выхода: 2014
Жанр: Фэнтези
Режиссер: Марк Л. Лестер
В ролях: Марк Гриффин, Джеймс Нитти, Сандра Дарнелл, Том Латимер, Селина Джайлс, Андрей Джарвис, Крейг Райдер, Ник Корнуолл, Уильям Хью, Дилан Джонс, Саймон Блад Девей, Энди Батчер, Уильям Б. Ханнаби, Кристофер Хьюз
О фильме:
Королевство Камелота погружено в тьму после смерти благородного короля Артура. Правление перешло в руки жестокой колдуньи, сестры Морган. Командуя тремя могущественными драконами с помощью темной магии, она охотится на оставшихся рыцарей Круглого стола. Юный Галахад понимает, что для того, чтобы добиться успеха, он должен найти других рыцарей и отца, Ланселота, который был в изгнании в течение многих лет. Только тогда они смогут вернуться в Камелот, убить Морган и ее драконов и спасти леди Гвиневер и волшебника Мерлина.

Страна: США
Студия: Titan Global Entertainment
Продолжительность: 01:20:21
Перевод: Профессиональный (многоголосый, закадровый)[официальный звук]
Файл
Качество: HDRip
Кодек: XviD
Видео: 720x400 (16:9), 23,976 fps, XviD ~2041 kbps avg, 0.296 bit/pixel
Звук: 48 kHz, AC3, 2 ch, ~192.00 kbps avg | русский | Профессиональный (многоголосый, закадровый)
Звук: 48 kHz, AC3, 2 ch, ~192.00 kbps avg | английский |
Субтитры: Отсутствуют
Семпл

Скриншоты

Инфо-файл

Общее
Полное имя : Drakony.Kamelota.2O14.P.HDRip.avi
Формат : AVI
Формат/Информация : Audio Video Interleave
Размер файла : 1,37 Гбайт
Продолжительность : 1 ч. 20 м.
Общий поток : 2439 Кбит/сек
Программа кодирования : VirtualDubMod 1.5.10.2 (build 2540/release)
Библиотека кодирования : VirtualDubMod build 2540/release
Видео
Идентификатор : 0
Формат : MPEG-4 Visual
Профиль формата : Advanced Simple@L5
Параметр BVOP формата : 2
Параметр QPel формата : Нет
Параметр GMC формата : Без точки перехода
Параметр матрицы формата : Default (MPEG)
Идентификатор кодека : XVID
Идентификатор кодека/Подсказка : XviD
Продолжительность : 1 ч. 20 м.
Битрейт : 2041 Кбит/сек
Ширина : 720 пикселей
Высота : 400 пикселей
Соотношение сторон : 16:9
Частота кадров : 23,976 (23976/1000) кадра/сек
Цветовое пространство : YUV
Субдискретизация насыщенности : 4:2:0
Битовая глубина : 8 бит
Тип развёртки : Прогрессивная
Метод сжатия : С потерями
Бит/(Пиксели*Кадры) : 0.296
Размер потока : 1,15 Гбайт (84%)
Библиотека кодирования : XviD 1.2.1 (UTC 2008-12-04)
Аудио #1
Идентификатор : 1
Формат : AC-3
Формат/Информация : Audio Coding 3
Расширение режима : CM (complete main)
Параметр Endianness формата : Big
Идентификатор кодека : 2000
Продолжительность : 1 ч. 20 м.
Вид битрейта : Постоянный
Битрейт : 192 Кбит/сек
Каналы : 2 канала
Расположение каналов : Front: L R
Частота : 48,0 КГц
Частота кадров : 31,250 кадров/сек (1536 spf)
Метод сжатия : С потерями
Размер потока : 110 Мбайт (8%)
Выравнивание : Разделение по промежуткам
Продолжительность промежутка : 42 мс. (1,00 видеокадр)
Время предзагрузки промежутка : 500 мс.
Аудио #2
Идентификатор : 2
Формат : AC-3
Формат/Информация : Audio Coding 3
Расширение режима : CM (complete main)
Параметр Endianness формата : Big
Идентификатор кодека : 2000
Продолжительность : 1 ч. 20 м.
Вид битрейта : Постоянный
Битрейт : 192 Кбит/сек
Каналы : 2 канала
Расположение каналов : Front: L R
Частота : 48,0 КГц
Частота кадров : 31,250 кадров/сек (1536 spf)
Метод сжатия : С потерями
Размер потока : 110 Мбайт (8%)
Выравнивание : Разделение по промежуткам
Продолжительность промежутка : 42 мс. (1,00 видеокадр)
Время предзагрузки промежутка : 500 мс.
[Профиль] [ЛС]
Показать сообщения:    

Текущее время: Сегодня 11:54

Часовой пояс: GMT



Вы не можете начинать темы
Вы не можете отвечать на сообщения
Вы не можете редактировать свои сообщения
Вы не можете удалять свои сообщения
Вы не можете голосовать в опросах
Вы не можете прикреплять файлы к сообщениям
Вы не можете скачивать файлы