Драконы: Гонки бесстрашных. Начало / Dragons: Dawn of the Dragon Racers (2014) BDRip-AVC от MediaClub | D

 
Автор Сообщение

sergej644 ®

Пол:

Стаж: 4 года 11 месяцев

Сообщений: 6041

Откуда: Soviet Union



Награды: Нет

Торрент-статистика

Создавать темы 24-Окт-2014 15:34

[Цитировать]

--Драконы: Гонки бесстрашных. Начало / Dragons: Dawn of the Dragon RacersИнформация о фильме
Название: Драконы: Гонки бесстрашных. Начало
Оригинальное название: Dragons: Dawn of the Dragon Racers
Год выхода: 2014
Жанр: Комедия, приключения, семейный, короткометражный
Режиссер: Джон Санфорд, Илэйн Боган
В ролях: Джей Барушель, Америка Феррера, Кристофер Минц-Плассе, ТиДжей Миллер, Нолан Норт, Крис Эджерли, Зак Перлман
О фильме:
Поиски пропавшей овцы превращаются в соревнование между Иккингом и его друзьями за титул первого чемпиона драконьих гонок Олуха. Это история о расцвете драконьих гонок, и о том, как они стали самым популярным видом спорта на Олухе. События короткометражки происходят после событий второго сезона сериала "Драконы: Защитники Олуха" и до событий полнометражного фильма "Как приручить дракона 2".-Релиз от: Рип - Викс

О релизе

За исходник СПАСИБО - Rishkhaan
Рип - Викс

MediaInfo

Общее
Уникальный идентификатор : 214515884090375397203818343809457568556 (0xA16241A820070145BB80A28F4447BB2C)
Полное имя : J:Готовые новые релизыDragons.Dawn.of.the.Dragon.Racers.2014.x264.BDRip-AVC-MediaClub.mkv
Формат : Matroska
Версия формата : Version 2
Размер файла : 637 Мбайт
Продолжительность : 26 м.
Общий поток : 3346 Кбит/сек
Название фильма : Dragons: Dawn of the Dragon Racers (2014) BDRip-AVC =MediaClub= [Викс]
Дата кодирования : UTC 2014-10-24 13:47:35
Программа кодирования : mkvmerge v4.2.0 ('No Talking') сборка от Jul 28 2010 18:38:23
Библиотека кодирования : libebml v1.0.0 + libmatroska v1.0.0
Видео
Идентификатор : 1
Формат : AVC
Формат/Информация : Advanced Video Codec
Профиль формата : High@L4.1
Параметр CABAC формата : Да
Параметр ReFrames формата : 9 кадров
Идентификатор кодека : V_MPEG4/ISO/AVC
Продолжительность : 26 м.
Битрейт : 2450 Кбит/сек
Ширина : 1024 пикселя
Высота : 576 пикселей
Соотношение сторон : 16:9
Режим частоты кадров : Постоянный
Частота кадров : 23,976 кадра/сек
Цветовое пространство : YUV
Субдискретизация насыщенности : 4:2:0
Битовая глубина : 8 бит
Тип развёртки : Прогрессивная
Бит/(Пиксели*Кадры) : 0.173
Размер потока : 454 Мбайт (71%)
Библиотека кодирования : x264 core 142 r2431 ac76440
Настройки программы : cabac=1 / ref=9 / deblock=1:-2:-2 / analyse=0x3:0x113 / me=umh / subme=11 / psy=1 / psy_rd=1.00:0.10 / mixed_ref=1 / me_range=48 / chroma_me=1 / trellis=2 / 8x8dct=1 / cqm=0 / deadzone=21,11 / fast_pskip=0 / chroma_qp_offset=-3 / threads=12 / lookahead_threads=2 / sliced_threads=0 / nr=0 / decimate=0 / interlaced=0 / bluray_compat=0 / constrained_intra=0 / bframes=8 / b_pyramid=2 / b_adapt=2 / b_bias=0 / direct=3 / weightb=1 / open_gop=0 / weightp=2 / keyint=230 / keyint_min=23 / scenecut=40 / intra_refresh=0 / rc_lookahead=40 / rc=2pass / mbtree=0 / bitrate=2450 / ratetol=1.0 / qcomp=0.60 / qpmin=0 / qpmax=69 / qpstep=4 / cplxblur=20.0 / qblur=0.5 / vbv_maxrate=50000 / vbv_bufsize=55000 / nal_hrd=none / filler=0 / ip_ratio=1.40 / pb_ratio=1.30 / aq=1:0.80
Язык : English
Default : Да
Forced : Нет
Аудио #1
Идентификатор : 2
Формат : AC-3
Формат/Информация : Audio Coding 3
Расширение режима : CM (complete main)
Параметр Endianness формата : Big
Идентификатор кодека : A_AC3
Продолжительность : 26 м.
Вид битрейта : Постоянный
Битрейт : 448 Кбит/сек
Каналы : 6 каналов
Расположение каналов : Front: L C R, Side: L R, LFE
Частота : 48,0 КГц
Битовая глубина : 16 бит
Метод сжатия : С потерями
Размер потока : 85,3 Мбайт (13%)
Заголовок : Dublirovannuj (Nevafilm)
Язык : Russian
Default : Да
Forced : Нет
Аудио #2
Идентификатор : 3
Формат : AC-3
Формат/Информация : Audio Coding 3
Расширение режима : CM (complete main)
Параметр Endianness формата : Big
Идентификатор кодека : A_AC3
Продолжительность : 26 м.
Вид битрейта : Постоянный
Битрейт : 448 Кбит/сек
Каналы : 6 каналов
Расположение каналов : Front: L C R, Side: L R, LFE
Частота : 48,0 КГц
Битовая глубина : 16 бит
Метод сжатия : С потерями
Размер потока : 85,3 Мбайт (13%)
Язык : English
Default : Нет
Forced : Нет
Текст #1
Идентификатор : 4
Формат : UTF-8
Идентификатор кодека : S_TEXT/UTF8
Идентификатор кодека/Информация : UTF-8 Plain Text
Язык : Russian
Default : Да
Forced : Нет
Текст #2
Идентификатор : 5
Формат : UTF-8
Идентификатор кодека : S_TEXT/UTF8
Идентификатор кодека/Информация : UTF-8 Plain Text
Язык : English
Default : Нет
Forced : Нет
Страна: США
Студия: DreamWorks Animation
Продолжительность: 00:26:37
Перевод: Дублированный (Невафильм)
Файл
Кодек: x264
Качество: BDRip-AVC
Видео: MPEG-4 AVC, 2450 Кбит/с, 1024x576, 23.976 кадр/с
Звук:
Аудио #1: Русский (AC3, 6 ch, 448 Кбит/с) / Дублированный (Невафильм)
Аудио #2: Английский (AC3, 6 ch, 448 Кбит/с)
Субтитры: Русские, английские
Семпл

Скриншоты

--
[Профиль] [ЛС]
Показать сообщения:    

Текущее время: Сегодня 21:01

Часовой пояс: GMT



Вы не можете начинать темы
Вы не можете отвечать на сообщения
Вы не можете редактировать свои сообщения
Вы не можете удалять свои сообщения
Вы не можете голосовать в опросах
Вы не можете прикреплять файлы к сообщениям
Вы не можете скачивать файлы