Драконовы девушки / Drachenmädchen (Иниго Вестмайер / Inigo Westmeier) [2012, документальный, BDRip 720p]

 
Автор Сообщение

TorrentFilm ®

Пол:

Стаж: 2 года

Сообщений: 7741



Награды: Нет

Торрент-статистика

Создавать темы 26-Дек-2014 02:00

[Цитировать]

Драконовы девушки / Drachenmädchen Год выпуска: 2012
Страна: Германия, Китай
Студия: GAP Films, Open Window Film, Bayerischer Rundfunk (BR)
Жанр: документальный
Продолжительность: 01:30:11
Перевод: Профессиональный (двухголосый закадровый)
Субтитры: английские, немецкие
Режиссер: Иниго Вестмайер / Inigo Westmeier
Описание: В одной из закрытых китайских школ воспитывается около 35 000 детей, - мальчиков и девочек, истово тренирующихся с утра до ночи, оттачивающих каждое движение с мечом или с палкой, превращающихся в мастеров кун-фу. В этой страшной муштре – мало философии и много дисциплины, мало образования и много жестоких тренировок. Что будет с этими детьми после окончания этой школы, больше похожей на армейский лагерь? К чему приведет тенденция отсылать детей в интернаты, чтобы освободить время для зарабатывания денег? И чем в будущем ответят дети своим родителям, избавившим их от своей любви и заботы? История трех китайских девочек которые готовятся стать бойцами кун-фу в школе "Дракона", расположенной рядом с монастырем Шаолинь. Здесь дети соблюдают строжайшие правила поведения и неукоснительно выполняют любые приказы наставников. Их превращают в боевых роботов, но если заглянуть поглубже – они оказываются самыми обычными детьми.
Тип релиза: BDRip 720p
Контейнер: MKV
Видео: MPEG-4 AVC, 1280x720 (16:9), 25.000 fps, ~3387 Kbps
Аудио: Russian AC3, 2 ch, 48KHz, 128 Kbps
Аудио 2: Chinese AC3, 5.1 ch, 48KHz, 384 Kbps
Формат субтитров: softsub (SRT)
Навигация по главам: есть
Сэмпл

MediaInfo

General
Unique ID : 230592898054089546922376324256696465282 (0xAD7A93A4BE67A79F94CDE6A301297782)
Complete name : E:\Драконовы девушки - Drachenmadchen (BDRip720p).mkv
Format : Matroska
Format version : Version 4 / Version 2
File size : 2.50 GiB
Duration : 1h 30mn
Overall bit rate : 3 975 Kbps
Encoded date : UTC 2014-12-10 08:06:27
Writing application : mkvmerge v7.3.0 ('Nouages') 64bit built on Oct 22 2014 18:53:34
Writing library : libebml v1.3.0 + libmatroska v1.4.1
DURATION : 01:30:03.008000000
NUMBER_OF_FRAMES : 168844
NUMBER_OF_BYTES : 86448128
_STATISTICS_WRITING_APP : mkvmerge v7.3.0 ('Nouages') 64bit built on Oct 22 2014 18:53:34
_STATISTICS_WRITING_DATE_UTC : 2014-12-10 08:06:27
_STATISTICS_TAGS : BPS DURATION NUMBER_OF_FRAMES NUMBER_OF_BYTES
Video
ID : 1
Format : AVC
Format/Info : Advanced Video Codec
Format profile : High@L3.1
Format settings, CABAC : Yes
Format settings, ReFrames : 5 frames
Codec ID : V_MPEG4/ISO/AVC
Duration : 1h 30mn
Bit rate : 3 384 Kbps
Width : 1 280 pixels
Height : 720 pixels
Display aspect ratio : 16:9
Frame rate mode : Constant
Frame rate : 25.000 fps
Color space : YUV
Chroma subsampling : 4:2:0
Bit depth : 8 bits
Scan type : Progressive
Bits/(Pixel*Frame) : 0.147
Stream size : 2.13 GiB (85%)
Title : Drachenmädchen 龍之女 (2012) BlurayRip MVGroup.org SeeingMole
Writing library : x264 core 138 r2358 9e941d1
Encoding settings : cabac=1 / ref=5 / deblock=1:0:0 / analyse=0x3:0x133 / me=umh / subme=9 / psy=1 / psy_rd=1.00:0.00 / mixed_ref=1 / me_range=24 / chroma_me=1 / trellis=1 / 8x8dct=1 / cqm=0 / deadzone=21,11 / fast_pskip=1 / chroma_qp_offset=-2 / threads=12 / lookahead_threads=1 / sliced_threads=0 / nr=0 / decimate=1 / interlaced=0 / bluray_compat=0 / constrained_intra=0 / bframes=5 / b_pyramid=2 / b_adapt=2 / b_bias=0 / direct=1 / weightb=1 / open_gop=0 / weightp=2 / keyint=250 / keyint_min=25 / scenecut=40 / intra_refresh=0 / rc_lookahead=40 / rc=crf / mbtree=1 / crf=16.0 / qcomp=0.60 / qpmin=0 / qpmax=69 / qpstep=4 / ip_ratio=1.40 / aq=1:1.00 / zones=134174,135285,q=41
Default : Yes
Forced : No
Color primaries : BT.709
Transfer characteristics : BT.709
Matrix coefficients : BT.709
Audio #1
ID : 2
Format : AC-3
Format/Info : Audio Coding 3
Mode extension : CM (complete main)
Format settings, Endianness : Big
Codec ID : A_AC3
Duration : 1h 30mn
Bit rate mode : Constant
Bit rate : 128 Kbps
Channel(s) : 2 channels
Channel positions : Front: L R
Sampling rate : 48.0 KHz
Bit depth : 16 bits
Compression mode : Lossy
Stream size : 82.6 MiB (3%)
Language : Russian
Default : Yes
Forced : No
Audio #2
ID : 3
Format : AC-3
Format/Info : Audio Coding 3
Mode extension : CM (complete main)
Format settings, Endianness : Big
Codec ID : A_AC3
Duration : 1h 30mn
Bit rate mode : Constant
Bit rate : 384 Kbps
Channel(s) : 6 channels
Channel positions : Front: L C R, Side: L R, LFE
Sampling rate : 48.0 KHz
Bit depth : 16 bits
Compression mode : Lossy
Stream size : 248 MiB (10%)
Language : Chinese
Default : No
Forced : No
Text #1
ID : 4
Format : UTF-8
Codec ID : S_TEXT/UTF8
Codec ID/Info : UTF-8 Plain Text
Language : English
Default : No
Forced : No
Text #2
ID : 5
Format : UTF-8
Codec ID : S_TEXT/UTF8
Codec ID/Info : UTF-8 Plain Text
Language : German
Default : No
Forced : No
Menu
00:00:00.000 : en:
00:10:41.400 : en:
00:21:24.000 : en:
00:33:41.600 : en:
00:41:18.000 : en:
00:55:09.000 : en:
01:06:17.800 : en:
01:16:44.400 : en:
01:21:36.000 : en:
01:28:00.800 : en:
01:30:10.000 : en:

Скриншоты

[Профиль] [ЛС]
Показать сообщения:    

Текущее время: Сегодня 04:18

Часовой пояс: GMT



Вы не можете начинать темы
Вы не можете отвечать на сообщения
Вы не можете редактировать свои сообщения
Вы не можете удалять свои сообщения
Вы не можете голосовать в опросах
Вы не можете прикреплять файлы к сообщениям
Вы не можете скачивать файлы