Драконий жемчуг: Эволюция / Dragonball Evolution (Джеймс Вонг / James Wong) [2009, США, Гонконг, Великобритания, фантастика, фэнтези, боевик, триллер, приключения, BDRip-AVC] Dub + Original (Eng) + Subs (Rus, Eng)

 
Автор Сообщение

TorrentFilm ®

Пол:

Стаж: 1 год 11 месяцев

Сообщений: 7741



Награды: Нет

Торрент-статистика

Создавать темы 18-Апр-2015 00:04

[Цитировать]

Драконий жемчуг: Эволюция / Dragonball Evolution
«This Easter the legend comes to life»
- Страна: США, Гонконг, Великобритания
Жанр: фантастика, фэнтези, боевик, триллер, приключения
Год выпуска: 2009
Продолжительность: 01:25:28-Перевод: Профессиональный (дублированный)
Оригинальная аудиодорожка: English
Cубтитры: Русские (полные), English (full)
Навигация по главам: присутствует - 18 глав-Режиссер: Джеймс Вонг / James Wong
В ролях: Джастин Чэтвин, Юнь-Фат Чоу , Эмми Россам, Джеймс Марстерс, Джун Парк, Эрико Тамура, Рэндолл Дак Ким, Джэми Чунг, Эрни Хадсон-Описание: Посланный на Землю для уничтожения человечества гуманоидный пришелец Гоку решает выполнить завет своего деда и собрать все семь магических артефактов, чтобы уберечь их от агрессивно настроенных сородичей. Повинуясь зову сердца, он переходит на нашу сторону и начинает защищать людей от различного инопланетного зла.-
Download sample-Качество видео: BDRip-AVC | исх. BD-Remux 1080p - thx: AlexXYX
Формат: MKV-Видео: 1 152x480 (2.40:1), 23.976 fps, H.264 ~4 400 kbps avg, 0.327 bit/pixel
Аудио №1: 48.0 kHz, AC3 Dolby Digital, 3/2 (L,C,R,l,r) + LFE ch, ~448 kbps | Профессиональный (дублированный)
Аудио №2: 48.0 kHz, AC3 Dolby Digital, 3/2 (L,C,R,l,r) + LFE ch, ~448 kbps | English
Субтитры №1: Русские (полные) | *.srt
Субтитры №2: English (full) | *.srt-

MediaInfo

General
Unique ID : 247844546131951859694330153427058331173 (0xBA751F90407B10AC953D43B508288E25)
Complete name : D:\Фильмы\Рипы\Dragonball Evolution.2009.BDRip-AVC.eFK tRuAVC.mkv
Format : Matroska
Format version : Version 4 / Version 2
File size : 3.19 GiB
Duration : 1h 25mn
Overall bit rate : 5 341 Kbps
Movie name : Драконий жемчуг: Эволюция / Dragonball Evolution (2009) - Release for rutracker
Encoded date : UTC 2015-04-15 06:11:21
Writing application : mkvmerge v7.6.0 ('Garden of Dreams') 64bit built on Feb 8 2015 13:04:34
Writing library : libebml v1.3.1 + libmatroska v1.4.2
Attachements : cover.png
DURATION : 01:15:37.991000000
NUMBER_OF_FRAMES : 976
NUMBER_OF_BYTES : 27804
_STATISTICS_WRITING_APP : mkvmerge v7.6.0 ('Garden of Dreams') 64bit built on Feb 8 2015 13:04:34
_STATISTICS_WRITING_DATE_UT : 2015-04-15 06:11:21
_STATISTICS_TAGS : BPS DURATION NUMBER_OF_FRAMES NUMBER_OF_BYTES
Video
ID : 1
Format : AVC
Format/Info : Advanced Video Codec
Format profile : High@L4.1
Format settings, CABAC : Yes
Format settings, ReFrames : 14 frames
Codec ID : V_MPEG4/ISO/AVC
Duration : 1h 25mn
Bit rate : 4 339 Kbps
Width : 1 152 pixels
Height : 480 pixels
Display aspect ratio : 2.40:1
Frame rate mode : Constant
Frame rate : 23.976 fps
Color space : YUV
Chroma subsampling : 4:2:0
Bit depth : 8 bits
Scan type : Progressive
Bits/(Pixel*Frame) : 0.327
Stream size : 2.59 GiB (81%)
Title : eFK tRuAVC
Writing library : x264 core 146 r2538kMod 121396c
Encoding settings : cabac=1 / ref=14 / deblock=1:-2:-2 / analyse=0x3:0x133 / me=umh / subme=11 / psy=1 / fade_compensate=0.00 / psy_rd=0.95:0.05 / mixed_ref=1 / me_range=32 / chroma_me=1 / trellis=2 / 8x8dct=1 / cqm=0 / deadzone=21,11 / fast_pskip=0 / chroma_qp_offset=-3 / threads=12 / lookahead_threads=3 / sliced_threads=0 / nr=0 / decimate=1 / interlaced=0 / bluray_compat=0 / constrained_intra=0 / fgo=0 / bframes=16 / b_pyramid=2 / b_adapt=2 / b_bias=0 / direct=3 / weightb=1 / open_gop=0 / weightp=2 / keyint=250 / keyint_min=23 / scenecut=40 / intra_refresh=0 / rc_lookahead=60 / rc=crf / mbtree=0 / crf=19.5000 / qcomp=0.70 / qpmin=0 / qpmax=69 / qpstep=4 / vbv_maxrate=50000 / vbv_bufsize=62500 / crf_max=0.0 / nal_hrd=none / filler=0 / ip_ratio=1.40 / pb_ratio=1.30 / aq=3:1.05
Language : English
Default : Yes
Forced : No
Color primaries : BT.709
Transfer characteristics : BT.709
Matrix coefficients : BT.709
Color range : Limited
DURATION : 01:25:26.705000000
NUMBER_OF_FRAMES : 122918
NUMBER_OF_BYTES : 2841607108
_STATISTICS_WRITING_APP : mkvmerge v7.6.0 ('Garden of Dreams') 64bit built on Feb 8 2015 13:04:34
_STATISTICS_WRITING_DATE_UT : 2015-04-15 06:11:21
_STATISTICS_TAGS : BPS DURATION NUMBER_OF_FRAMES NUMBER_OF_BYTES
Audio #1
ID : 2
Format : AC-3
Format/Info : Audio Coding 3
Mode extension : CM (complete main)
Format settings, Endianness : Big
Codec ID : A_AC3
Duration : 1h 25mn
Bit rate mode : Constant
Bit rate : 448 Kbps
Channel(s) : 6 channels
Channel positions : Front: L C R, Side: L R, LFE
Sampling rate : 48.0 KHz
Bit depth : 16 bits
Compression mode : Lossy
Stream size : 274 MiB (8%)
Title : Dub
Language : Russian
Default : Yes
Forced : No
Audio #2
ID : 3
Format : AC-3
Format/Info : Audio Coding 3
Mode extension : CM (complete main)
Format settings, Endianness : Big
Codec ID : A_AC3
Duration : 1h 25mn
Bit rate mode : Constant
Bit rate : 448 Kbps
Channel(s) : 6 channels
Channel positions : Front: L C R, Side: L R, LFE
Sampling rate : 48.0 KHz
Bit depth : 16 bits
Compression mode : Lossy
Stream size : 274 MiB (8%)
Language : English
Default : No
Forced : No
Text #1
ID : 4
Format : UTF-8
Codec ID : S_TEXT/UTF8
Codec ID/Info : UTF-8 Plain Text
Title : полные
Language : Russian
Default : No
Forced : No
Text #2
ID : 5
Format : UTF-8
Codec ID : S_TEXT/UTF8
Codec ID/Info : UTF-8 Plain Text
Title : full
Language : English
Default : No
Forced : No
Menu
00:00:00.000 : :Chapter 01
00:05:00.000 : :Chapter 02
00:10:00.000 : :Chapter 03
00:15:00.000 : :Chapter 04
00:20:00.000 : :Chapter 05
00:25:00.000 : :Chapter 06
00:30:00.000 : :Chapter 07
00:35:00.000 : :Chapter 08
00:40:00.000 : :Chapter 09
00:45:00.000 : :Chapter 10
00:50:00.000 : :Chapter 11
00:55:00.000 : :Chapter 12
01:00:00.000 : :Chapter 13
01:05:00.000 : :Chapter 14
01:10:00.000 : :Chapter 15
01:15:00.000 : :Chapter 16
01:20:00.000 : :Chapter 17
01:25:00.000 : :Chapter 18

x264 log

x264 [info]: frame I:883 Avg QP:16.79 size: 89150
x264 [info]: frame P:26113 Avg QP:18.48 size: 42873
x264 [info]: frame B:95922 Avg QP:20.73 size: 17132
x264 [info]: consecutive B-frames: 2.5% 2.9% 6.3% 17.8% 16.1% 35.6% 9.9% 2.1% 1.7% 0.9% 0.9% 0.8% 0.8% 0.4% 0.2% 0.7% 0.3%
x264 [info]: mb I I16..4: 9.7% 77.6% 12.7%
x264 [info]: mb P I16..4: 0.8% 26.9% 1.6% P16..4: 22.9% 28.3% 12.7% 1.8% 0.1% skip: 4.9%
x264 [info]: mb B I16..4: 0.1% 4.0% 0.1% B16..8: 35.8% 22.2% 5.0% direct: 6.9% skip:25.9% L0:44.4% L1:44.0% BI:11.6%
x264 [info]: 8x8 transform intra:91.7% inter:59.1%
x264 [info]: direct mvs spatial:99.8% temporal:0.2%
x264 [info]: coded y,uvDC,uvAC intra: 96.0% 90.9% 78.0% inter: 36.1% 28.3% 8.8%
x264 [info]: i16 v,h,dc,p: 23% 7% 13% 56%
x264 [info]: i8 v,h,dc,ddl,ddr,vr,hd,vl,hu: 7% 7% 14% 10% 13% 12% 12% 11% 13%
x264 [info]: i4 v,h,dc,ddl,ddr,vr,hd,vl,hu: 8% 6% 6% 10% 16% 15% 14% 12% 13%
x264 [info]: i8c dc,h,v,p: 47% 19% 14% 19%
x264 [info]: Weighted P-Frames: Y:6.1% UV:4.5%
x264 [info]: ref P L0: 45.1% 11.5% 17.6% 6.4% 5.1% 3.4% 2.9% 1.6% 1.5% 1.1% 1.1% 0.9% 0.9% 0.8% 0.1% 0.0%
x264 [info]: ref B L0: 68.2% 13.0% 6.8% 3.3% 2.5% 1.8% 1.4% 0.8% 0.6% 0.5% 0.5% 0.3% 0.1%
x264 [info]: ref B L1: 91.1% 8.9%
x264 [info]: kb/s:4434.20
x264 [total]: encoded 122918 frames, 7.30 fps, 4434.20 kb/s, duration 4:40:41.68
ComparisonSource

Encode
http://torrentfilm.net/forum/viewtopic.php?t=2044004 http://screenshotcomparison.com/comparison/122037
[Профиль] [ЛС]

Создавать темы 06-Авг-2015 22:37 (спустя 3 месяца 18 дней)

Топик был перенесен из форума Фильмы до 2014 года в форум Фильмы до 2012 года
sergej644
 

Создавать темы 12-Июн-2016 08:49 (спустя 1 год 1 месяц)

Топик был перенесен из форума Фильмы 2011 года в форум Фильмы 2009 года
Russian Mafia
 
Показать сообщения:    

Текущее время: Сегодня 04:59

Часовой пояс: GMT



Вы не можете начинать темы
Вы не можете отвечать на сообщения
Вы не можете редактировать свои сообщения
Вы не можете удалять свои сообщения
Вы не можете голосовать в опросах
Вы не можете прикреплять файлы к сообщениям
Вы не можете скачивать файлы