Драйв / Drive (1997) DVDRip-AVC | P, A | Режиссерская версия

 
Автор Сообщение

sergej644 ®

Пол:

Стаж: 4 года 11 месяцев

Сообщений: 6043

Откуда: Soviet Union



Награды: Нет

Торрент-статистика

Создавать темы 31-Окт-2014 11:41

[Цитировать]

Информация о фильме
Название: Драйв
Оригинальное: Drive
Год выхода: 1997
Выпущено: NEO Motion Pictures
Страна: США
Жанр: Фантастика, боевик, комедия, приключения
Продолжительность: 01:52:45
Перевод: Профессиональный многоголосый, авторский
Режиссер: Стив Ванг
В ролях: Марк Дакаскос, Кадим Хардисон, Джон Пайпер-Фергюсон, Бриттани Мёрфи, Трейси Уолтер, Джеймс Шигета, Масая Като, Дом Магуили, Рон Йуан, Клив Розенгрен, Кристофер Майкл, Тед Смит, Тед Сзето, Р.А. Михайлофф, Дэвид Уоттс, СиСи Тсоу, Нельсон Машита, Санаа Лэтэн, Херб Митчел, Стив Виалл, Джо Ангер, Джонни Мартин, Уоррен А. Стивенс, Чак Борден, Шон Моран, Эрих Мартин Фон Хикс, Крис ДеРоси, Дэвид Хэйтер, Ховард Флаэрти, Джофф Эдвардс, Кимберли И. Голтри, Керри Кларк, Боб Барнс- -Сюжет фильма

Сан-Франциско. Недалекое будущее. Грузовое судно возвращается из Гонконга с загадочным пассажиром по имени Тоби Уонг. Он сбежал от подпольной корпорации Леунга в поисках свободы на Западе. Однако Тоби попадает в лапы банды хладнокровного Вика Мэдисона. Вырвавшись из банды Мэдисона, он берет в заложники пьяницу Малика Броунди и едет в Лос-Анджелес. В дороге они становятся приятелями, и Тоби даже обучает Малика боевым искусствам. Однажды Малик узнает, что у Тоби имплантирован биомодуль, дающий ему силу и скорость. Это сделал мистер Лау, глава корпорации Леунг, который хочет вернуть беглеца во что бы то ни стало. Сбежавшую парочку преследует и банда Вика Мэдисона и новая жертва мистер Лау с более совершенным биомодулем.-Файл
Кодек: x264
Формат: MKV
Качество: DVDRip 576p (Источник: DVD-9)
Видео: MPEG-4 AVC (2.35:1) 1016x432 pix, 25.000 fps, 1966 kbps
Аудио I: Dolby Digital (5.1) 16 bit, 48 kHz, 448 kbps (MVO "Twister")
Аудио II: Dolby Digital (5.1) 16 bit, 48 kHz, 448 kbps (AVO "В. Горчаков")
Аудио III: Dolby Digital (5.1) 16 bit, 48 kHz, 384 kbps (AVO "Ю. Живов")
Аудио IV: Dolby Digital (5.1) 16 bit, 48 kHz, 448 kbps (Eng "Original")
Субтитры: SRT Русские
Меню: Сохранены оригинальные чаптеры DVD

MI & x264

Общее
Уникальный идентификатор : 214708078298824991877328016147191640474 (0xA187459014C97C27A1070F8BB4E7319A)
Формат : Matroska
Версия формата : Version 2
Размер файла : 2,91 Гбайт
Продолжительность : 1 ч. 52 м.
Общий поток : 3696 Кбит/сек
Название фильма : Драйв (1997) DVDRip (576p)
Дата кодирования : UTC 2014-09-29 08:27:51
Программа кодирования : mkvmerge v5.8.0 ('No Sleep / Pillow') built on Sep 2 2012 15:37:04
Библиотека кодирования : libebml v1.2.3 + libmatroska v1.3.0
Видео
Идентификатор : 1
Формат : AVC
Формат/Информация : Advanced Video Codec
Профиль формата : High@L4.1
Параметр CABAC формата : Да
Параметр ReFrames формата : 8 кадров
Идентификатор кодека : V_MPEG4/ISO/AVC
Продолжительность : 1 ч. 52 м.
Битрейт : 1966 Кбит/сек
Ширина : 1016 пикселей
Высота : 432 пикселя
Соотношение сторон : 2,35:1
Режим частоты кадров : Постоянный
Частота кадров : 25,000 кадров/сек
Цветовое пространство : YUV
Субдискретизация насыщенности : 4:2:0
Битовая глубина : 8 бит
Тип развёртки : Прогрессивная
Бит/(Пиксели*Кадры) : 0.179
Размер потока : 1,49 Гбайт (51%)
Заголовок : Release by Alex260680
Библиотека кодирования : x264 core 142 r2479 dd79a61
Настройки программы : cabac=1 / ref=8 / deblock=1:-3:-3 / analyse=0x3:0x133 / me=umh / subme=11 / psy=1 / psy_rd=1.00:0.05 / mixed_ref=1 / me_range=32 / chroma_me=1 / trellis=2 / 8x8dct=1 / cqm=0 / deadzone=21,11 / fast_pskip=0 / chroma_qp_offset=-3 / threads=6 / lookahead_threads=1 / sliced_threads=0 / nr=0 / decimate=0 / interlaced=0 / bluray_compat=0 / constrained_intra=0 / bframes=8 / b_pyramid=2 / b_adapt=2 / b_bias=0 / direct=3 / weightb=1 / open_gop=0 / weightp=2 / keyint=250 / keyint_min=25 / scenecut=40 / intra_refresh=0 / rc=2pass / mbtree=0 / bitrate=1966 / ratetol=1.0 / qcomp=0.60 / qpmin=0 / qpmax=69 / qpstep=4 / cplxblur=20.0 / qblur=0.5 / ip_ratio=1.40 / pb_ratio=1.30 / aq=1:0.70
Язык : English
Default : Да
Forced : Нет
Аудио #1
Идентификатор : 2
Формат : AC-3
Формат/Информация : Audio Coding 3
Расширение режима : CM (complete main)
Параметр Endianness формата : Big
Идентификатор кодека : A_AC3
Продолжительность : 1 ч. 52 м.
Вид битрейта : Постоянный
Битрейт : 448 Кбит/сек
Каналы : 6 каналов
Расположение каналов : Front: L C R, Side: L R, LFE
Частота : 48,0 КГц
Битовая глубина : 16 бит
Метод сжатия : С потерями
Размер потока : 361 Мбайт (12%)
Заголовок : MVO (Twister)
Язык : Russian
Default : Да
Forced : Нет
Аудио #2
Идентификатор : 3
Формат : AC-3
Формат/Информация : Audio Coding 3
Расширение режима : CM (complete main)
Параметр Endianness формата : Big
Идентификатор кодека : A_AC3
Продолжительность : 1 ч. 52 м.
Вид битрейта : Постоянный
Битрейт : 448 Кбит/сек
Каналы : 6 каналов
Расположение каналов : Front: L C R, Side: L R, LFE
Частота : 48,0 КГц
Битовая глубина : 16 бит
Метод сжатия : С потерями
Размер потока : 361 Мбайт (12%)
Заголовок : AVO (В. Горчаков)
Язык : Russian
Default : Нет
Forced : Нет
Аудио #3
Идентификатор : 4
Формат : AC-3
Формат/Информация : Audio Coding 3
Расширение режима : CM (complete main)
Параметр Endianness формата : Big
Идентификатор кодека : A_AC3
Продолжительность : 1 ч. 52 м.
Вид битрейта : Постоянный
Битрейт : 384 Кбит/сек
Каналы : 6 каналов
Расположение каналов : Front: L C R, Side: L R, LFE
Частота : 48,0 КГц
Битовая глубина : 16 бит
Метод сжатия : С потерями
Размер потока : 310 Мбайт (10%)
Заголовок : AVO (Ю. Живов)
Язык : Russian
Default : Нет
Forced : Нет
Аудио #4
Идентификатор : 5
Формат : AC-3
Формат/Информация : Audio Coding 3
Расширение режима : CM (complete main)
Параметр Endianness формата : Big
Идентификатор кодека : A_AC3
Продолжительность : 1 ч. 52 м.
Вид битрейта : Постоянный
Битрейт : 448 Кбит/сек
Каналы : 6 каналов
Расположение каналов : Front: L C R, Side: L R, LFE
Частота : 48,0 КГц
Битовая глубина : 16 бит
Метод сжатия : С потерями
Размер потока : 361 Мбайт (12%)
Заголовок : Original
Язык : English
Default : Нет
Forced : Нет
Текст
Идентификатор : 6
Формат : UTF-8
Идентификатор кодека : S_TEXT/UTF8
Идентификатор кодека/Информация : UTF-8 Plain Text
Язык : Russian
Default : Нет
Forced : Нет
Меню
00:00:00.000 : en:Chapter1
00:02:05.400 : en:Chapter2
00:04:21.360 : en:Chapter3
00:08:56.880 : en:Chapter4
00:13:40.200 : en:Chapter5
00:16:02.280 : en:Chapter6
00:20:16.200 : en:Chapter7
00:24:52.320 : en:Chapter8
00:29:08.760 : en:Chapter9
00:35:59.520 : en:Chapter10
00:39:19.920 : en:Chapter11
00:44:58.080 : en:Chapter12
00:49:50.640 : en:Chapter13
00:53:48.120 : en:Chapter14
00:58:24.000 : en:Chapter15
01:03:02.160 : en:Chapter16
01:07:24.600 : en:Chapter17
01:11:38.040 : en:Chapter18
01:16:41.880 : en:Chapter19
01:21:05.040 : en:Chapter20
01:25:24.120 : en:Chapter21
01:30:01.920 : en:Chapter22
01:34:34.920 : en:Chapter23
01:38:53.160 : en:Chapter24
01:43:31.680 : en:Chapter25
01:46:55.800 : en:Chapter26-x264 [info]: frame I:1479 Avg QP:16.83 size: 42977
x264 [info]: frame P:36537 Avg QP:19.44 size: 19128
x264 [info]: frame B:131128 Avg QP:21.55 size: 6861
- -
[Профиль] [ЛС]

Создавать темы 06-Авг-2015 23:01 (спустя 9 месяцев 6 дней)

Топик был перенесен из форума Фильмы до 2014 года в форум Фильмы до 2012 года
sergej644
 
Показать сообщения:    

Текущее время: Сегодня 08:13

Часовой пояс: GMT



Вы не можете начинать темы
Вы не можете отвечать на сообщения
Вы не можете редактировать свои сообщения
Вы не можете удалять свои сообщения
Вы не можете голосовать в опросах
Вы не можете прикреплять файлы к сообщениям
Вы не можете скачивать файлы