Драйвер на ночь / Stretch (2014) BDRip 1080p | A

 
Автор Сообщение

достали все ®

Пол:

Стаж: 1 год 8 месяцев

Сообщений: 6613



Награды: 12 (Подробнее)

Mega Seeder 4 (Количество: 1) За внесенный вклад в развитие сайта (Количество: 1) Mega Releaser 2 (Количество: 1)
Торрент-статистика

Создавать темы 01-Июн-2015 03:07

[Цитировать]

Драйвер на ночь / Stretch Год выпуска: 2014
Страна: США
Производство: Blumhouse Productions, Chambara Pictures, IM Global, Universal Pictures
Слоган: «Фигня случается»
Жанр: триллер, комедия
Продолжительность: 01:34:17
Перевод: Авторский (одноголосый) Дмитрий Есарев
Субтитры: Russian, English, Romanian-Режиссер: Джо Карнахан / Joe Carnahan
Сценарий: Джо Карнахан / Joe Carnahan, Джерри Корли / Jerry Corley, Роб Роуз / Rob Rose
Продюсер: Джейсон Блум / Jason Blum, Бен Брэй / Ben Bray, Джо Карнахан / Joe Carnahan, Трэйси Фалько / Tracy Falco, Жанетт Брилл / Jeanette Brill
Оператор: Ясу Танида / Yasu Tanida
Композитор: Людвиг Горанссон / Ludwig Göransson-В ролях: Патрик Уилсон (Stretch), Эд Хелмс (Karl), Джеймс Бэдж Дэйл (Laurent), Бруклин Декер (Candace), Крис Пайн (Roger Karos, в титрах не указан), Джессика Альба (Charlie), Рэй Лиотта (Ray Liotta), Дэвид Хассельхофф (David Hasselhoff), Рэнди Кутюр (The Jovi), Минди Робинсон (The Jovi's Girl), Клер Девенпорт II (Girl #1), Сидни Брусо (Girl #2)
Мировая премьера: 14 октября 2014
Премьера (РФ): 4 июня 2015, «Top Film Distribution»-Описание: Невезучему шоферу лимузина до выплаты внушительного долга остается отработать всего одну смену. Его последним клиентом становится загадочный молодой миллиардер, пообещавший небывалые чаевые за несколько дополнительных услуг. В погоне за так нужными ему сейчас деньгами водитель ввязывается в безумные переделки на улицах Лос-Анджелеса, и чем больше ночь опускается на мегаполис, тем более призрачной видится ему надежда остаться в живых...-Рейтинг:

MPAA: R - Лицам до 17 лет обязательно присутствие взрослого-Формат: Matroska
Видео: 1920x800 at 23.976 fps, x264@L4.1, ~12200 kbps avg
Aудио#1: Russian: 48 kHz, DTS, 3/2 (L,C,R,l,r) + LFE ch, ~1509 kbps avg |Авторский, Д. Есарев|
Aудио#2: Russian: 48 kHz, AC3, 3/2 (L,C,R,l,r) + LFE ch, ~640 kbps avg |Авторский, Д. Есарев|
Аудио#3: English: 48 kHz, DTS, 3/2 (L,C,R,l,r) + LFE ch, ~1509 kbps avg-

MI

General
Unique ID : 196002048203515255691234695463555350391 (0x93749F12BC67CE86A56419E446E8BF77)
Complete name : Stretch.2014.1080p.BluRay.DTS.x264-CtrlHD.mkv
Format : Matroska
Format version : Version 2
File size : 10.7 GiB
Duration : 1h 34mn
Overall bit rate : 16.2 Mbps
Movie name : Stretch
Encoded date : UTC 2015-05-31 18:34:18
Writing application : mkvmerge v7.9.0 ('Birds') 64bit
Writing library : libebml v1.3.1 + libmatroska v1.4.2
Video
ID : 1
Format : AVC
Format/Info : Advanced Video Codec
Format profile : High@L4.1
Format settings, CABAC : Yes
Format settings, ReFrames : 5 frames
Codec ID : V_MPEG4/ISO/AVC
Duration : 1h 34mn
Bit rate : 12.2 Mbps
Width : 1 920 pixels
Height : 800 pixels
Display aspect ratio : 2.40:1
Frame rate mode : Constant
Frame rate : 23.976 fps
Color space : YUV
Chroma subsampling : 4:2:0
Bit depth : 8 bits
Scan type : Progressive
Bits/(Pixel*Frame) : 0.331
Stream size : 8.05 GiB (75%)
Writing library : x264 core 142 r2431+42 c69a006 tMod [8-bit@all X86_64]
Encoding settings : cabac=1 / ref=5 / deblock=1:-3:-3 / analyse=0x3:0x133 / me=tesa / subme=11 / psy=1 / fade_compensate=0.00 / psy_rd=0.95:0.00 / mixed_ref=1 / me_range=32 / chroma_me=1 / trellis=2 / 8x8dct=1 / cqm=0 / deadzone=21,11 / fast_pskip=0 / chroma_qp_offset=-2 / threads=6 / lookahead_threads=1 / sliced_threads=0 / nr=0 / decimate=0 / interlaced=0 / bluray_compat=0 / constrained_intra=0 / fgo=0 / bframes=8 / b_pyramid=2 / b_adapt=2 / b_bias=0 / direct=3 / weightb=1 / open_gop=0 / weightp=2 / keyint=250 / keyint_min=23 / scenecut=40 / intra_refresh=0 / rc=crf / mbtree=0 / crf=17.0000 / qcomp=0.60 / qpmin=0:0:0 / qpmax=69:69:69 / qpstep=4 / ip_ratio=1.20 / pb_ratio=1.10 / aq=4:0.85 / aq-sensitivity=10.00 / aq-factor=1.00:1.00:1.00 / aq2=0 / aq3=0
Language : English
Default : Yes
Forced : No
Audio #1
ID : 2
Format : DTS
Format/Info : Digital Theater Systems
Mode : 16
Format settings, Endianness : Big
Codec ID : A_DTS
Duration : 1h 34mn
Bit rate mode : Constant
Bit rate : 1 509 Kbps
Channel(s) : 6 channels
Channel positions : Front: L C R, Side: L R, LFE
Sampling rate : 48.0 KHz
Bit depth : 24 bits
Compression mode : Lossy
Stream size : 1 021 MiB (9%)
Title : Авторское (одноголосое) Д. Есарев
Language : Russian
Default : Yes
Forced : No
Audio #2
ID : 3
Format : AC-3
Format/Info : Audio Coding 3
Mode extension : CM (complete main)
Format settings, Endianness : Big
Codec ID : A_AC3
Duration : 1h 34mn
Bit rate mode : Constant
Bit rate : 640 Kbps
Channel(s) : 6 channels
Channel positions : Front: L C R, Side: L R, LFE
Sampling rate : 48.0 KHz
Bit depth : 16 bits
Compression mode : Lossy
Stream size : 433 MiB (4%)
Title : Авторское (одноголосое) Д. Есарев
Language : Russian
Default : No
Forced : No
Audio #3
ID : 4
Format : DTS
Format/Info : Digital Theater Systems
Mode : 16
Format settings, Endianness : Big
Codec ID : A_DTS
Duration : 1h 34mn
Bit rate mode : Constant
Bit rate : 1 509 Kbps
Channel(s) : 6 channels
Channel positions : Front: L C R, Side: L R, LFE
Sampling rate : 48.0 KHz
Bit depth : 24 bits
Compression mode : Lossy
Stream size : 1 021 MiB (9%)
Language : English
Default : No
Forced : No
Text #1
ID : 5
Format : UTF-8
Codec ID : S_TEXT/UTF8
Codec ID/Info : UTF-8 Plain Text
Language : English
Default : No
Forced : No
Text #2
ID : 6
Format : UTF-8
Codec ID : S_TEXT/UTF8
Codec ID/Info : UTF-8 Plain Text
Language : Russian
Default : No
Forced : No
Text #3
ID : 7
Format : UTF-8
Codec ID : S_TEXT/UTF8
Codec ID/Info : UTF-8 Plain Text
Language : Romanian
Default : No
Forced : No
Text #4
ID : 8
Format : UTF-8
Codec ID : S_TEXT/UTF8
Codec ID/Info : UTF-8 Plain Text
Title : SDH
Language : English
Default : No
Forced : No

Скриншоты

-
[Профиль] [ЛС]
Показать сообщения:    

Текущее время: Сегодня 02:32

Часовой пояс: GMT



Вы не можете начинать темы
Вы не можете отвечать на сообщения
Вы не можете редактировать свои сообщения
Вы не можете удалять свои сообщения
Вы не можете голосовать в опросах
Вы не можете прикреплять файлы к сообщениям
Вы не можете скачивать файлы