До самого конца / All the Way (2016) WEB-DL 720p | Amedia

 
Автор Сообщение

достали все ®

Пол:

Стаж: 1 год 8 месяцев

Сообщений: 6613



Награды: 12 (Подробнее)

Mega Releaser 1 (Количество: 1) Mega Releaser 3 (Количество: 1) Mega Seeder 4 (Количество: 1)
Торрент-статистика

Создавать темы 23-Май-2016 08:40

[Цитировать]

До самого конца / All the Way
Страна: США
Производство: Amblin Entertainment, HBO Films, Moon Shot Entertainment
Год выпуска: 2016
Жанр: драма, биография, история
Продолжительность: 02:11:59
Режиссер: Джей Роуч
Автор сценария: Роберт Шенккан
В ролях: Энтони Маки, Брайан Крэнстон, Джо Мортон, Брэдли Уитфорд, Фрэнк Ланджелла, Стивен Рут, Мелисса Лео, Итэн Филлипс
Описание: Линдон Джонсон становится президентом США на волне всеобщего хаоса, вызванного внезапным убийством Джона Кеннеди. В первый же год на посту главы государства Линдон Джонсон способствует принятию Акта о гражданских правах, который положит конец расовой сегрегации на юге страны — по крайней мере на бумаге...

Перевод: Профессиональный (многоголосый, закадровый) | Amedia
Субтитры: английские-Качество: WEB-DL 720p
Формат: МКV
Видео кодек: AVC
Аудио кодек: АС3
Видео: 1280x720 (16:9), 23.976 fps, MPEG-4 AVC ~3 415 kbps avg, 0.155 bit/pixel
Аудио №1: 48.0 kHz, AC3 Dolby Digital, 3/2 (L,C,R,l,r) + LFE ch, ~384 kbps | RUS
Аудио №2: 44.1 kHz, AC3 Dolby Digital, 2/0 (L,R) ch, ~384.00 kbps | ENG
Формат субтитров: UTF-8 Plain Text
Дата премьеры (мир): 21 мая 2016

Media Info

General
Unique ID : 230201604418988991190166922150409932220 (0xAD2F3760B9851381AD035193EDEC0DBC)
Format : Matroska
Format version : Version 4 / Version 2
Overall bit rate : 4 268 Kbps
Movie name : MoreFilms
Encoded date : UTC 2016-05-22 21:19:58
Writing application : mkvmerge v8.8.0 ('Wind at my back') 64bit
Writing library : libebml v1.3.3 + libmatroska v1.4.4
DURATION : 00:01:10.078000000
NUMBER_OF_FRAMES : 2012
NUMBER_OF_BYTES : 3363736
_STATISTICS_WRITING_APP : mkvmerge v8.8.0 ('Wind at my back') 64bit
_STATISTICS_WRITING_DATE_UTC : 2016-05-22 21:19:58
_STATISTICS_TAGS : BPS DURATION NUMBER_OF_FRAMES NUMBER_OF_BYTES
Video
ID : 1
Format : AVC
Format/Info : Advanced Video Codec
Format profile : High@L4.1
Format settings, CABAC : Yes
Format settings, ReFrames : 9 frames
Codec ID : V_MPEG4/ISO/AVC
Bit rate : 3 415 Kbps
Width : 1 280 pixels
Height : 720 pixels
Display aspect ratio : 16:9
Frame rate mode : Constant
Frame rate : 23.976 fps
Color space : YUV
Chroma subsampling : 4:2:0
Bit depth : 8 bits
Scan type : Progressive
Bits/(Pixel*Frame) : 0.155
Stream size : 29.7 MiB (80%)
Default : Yes
Forced : No
DURATION : 00:01:10.071000000
NUMBER_OF_FRAMES : 1680
NUMBER_OF_BYTES : 32210276
_STATISTICS_WRITING_APP : mkvmerge v8.8.0 ('Wind at my back') 64bit
_STATISTICS_WRITING_DATE_UTC : 2016-05-22 21:19:58
_STATISTICS_TAGS : BPS DURATION NUMBER_OF_FRAMES NUMBER_OF_BYTES
Audio #1
ID : 2
Format : AC-3
Format/Info : Audio Coding 3
Mode extension : CM (complete main)
Format settings, Endianness : Big
Codec ID : A_AC3
Bit rate mode : Constant
Bit rate : 384 Kbps
Channel(s) : 6 channels
Channel positions : Front: L C R, Side: L R, LFE
Sampling rate : 48.0 KHz
Compression mode : Lossy
Stream size : 3.34 MiB (9%)
Language : Russian
Default : Yes
Forced : Yes
Audio #2
ID : 3
Format : AC-3
Format/Info : Audio Coding 3
Mode extension : CM (complete main)
Format settings, Endianness : Big
Codec ID : A_AC3
Bit rate mode : Constant
Bit rate : 384 Kbps
Channel(s) : 2 channels
Channel positions : Front: L R
Sampling rate : 44.1 KHz
Compression mode : Lossy
Stream size : 3.34 MiB (9%)
Language : English
Default : No
Forced : No
DURATION : 00:01:11.903000000
NUMBER_OF_FRAMES : 26
NUMBER_OF_BYTES : 1022
_STATISTICS_WRITING_APP : mkvmerge v8.8.0 ('Wind at my back') 64bit
_STATISTICS_WRITING_DATE_UTC : 2016-05-22 21:19:58
_STATISTICS_TAGS : BPS DURATION NUMBER_OF_FRAMES NUMBER_OF_BYTES
Text
ID : 4
Format : UTF-8
Codec ID : S_TEXT/UTF8
Codec ID/Info : UTF-8 Plain Text
Language : English
Default : No
Forced : No

Скриншоты

[Профиль] [ЛС]
Кто просматривает тему:

Показать сообщения:    

Текущее время: Сегодня 22:40

Часовой пояс: GMT



Вы не можете начинать темы
Вы не можете отвечать на сообщения
Вы не можете редактировать свои сообщения
Вы не можете удалять свои сообщения
Вы не можете голосовать в опросах
Вы не можете прикреплять файлы к сообщениям
Вы не можете скачивать файлы