До самого конца / All the Way (2016) WEB-DLRip | Amedia

 
Автор Сообщение

достали все ®

Пол:

Стаж: 1 год 8 месяцев

Сообщений: 6571



Награды: 12 (Подробнее)

Mega Seeder 3 (Количество: 1) Top Releaser 4 (Количество: 1) Mega Releaser 1 (Количество: 1)
Торрент-статистика

Создавать темы 23-Май-2016 08:37

[Цитировать]

До самого конца / All the Way
Страна: США
Производство: Amblin Entertainment, HBO Films, Moon Shot Entertainment
Год выпуска: 2016
Жанр: драма, биография, история
Продолжительность: 02:11:59
Режиссер: Джей Роуч
Автор сценария: Роберт Шенккан
В ролях: Энтони Маки, Брайан Крэнстон, Джо Мортон, Брэдли Уитфорд, Фрэнк Ланджелла, Стивен Рут, Мелисса Лео, Итэн Филлипс
Описание: Линдон Джонсон становится президентом США на волне всеобщего хаоса, вызванного внезапным убийством Джона Кеннеди. В первый же год на посту главы государства Линдон Джонсон способствует принятию Акта о гражданских правах, который положит конец расовой сегрегации на юге страны — по крайней мере на бумаге...

Перевод: Профессиональный (многоголосый, закадровый) | Amedia
Субтитры: нет-Качество: WEB-DLRip
Формат: АVI
Видео кодек: XviD
Аудио кодек: АС3
Видео: 720x400 (16:9), 23.976 fps, XviD ~1 281 kbps avg, 0.113 bit/pixel
Аудио: 48.0 kHz, AC3 Dolby Digital, 2/0 (L,R) ch, ~192 kbps
Дата премьеры (мир): 21 мая 2016

Media Info

General
Format : AVI
Format/Info : Audio Video Interleave
Movie name : Do.SamoGo.Kontsa.2O16.P.WEB-DLRip.1400MB
Writing application : VirtualDubMod 1.5.10.3 | (build 2550/release)
Writing library : VirtualDubMod build 2550/release
Copyright : MoreFilms
Video
ID : 0
Format : MPEG-4 Visual
Format profile : Advanced Simple@L5
Format settings, BVOP : 2
Format settings, QPel : No
Format settings, GMC : No warppoints
Format settings, Matrix : Custom
Codec ID : XVID
Codec ID/Hint : XviD
Bit rate : 1281 Kbps
Width : 720 pixels
Height : 400 pixels
Display aspect ratio : 16:9
Frame rate : 23.976 fps
Color space : YUV
Chroma subsampling : 4:2:0
Bit depth : 8 bits
Scan type : Progressive
Compression mode : Lossy
Bits/(Pixel*Frame) : 0.113
Stream size : 10.6 MiB (79%)
Writing library : XviD 1.2.1 (UTC 2008-12-04)
Audio
ID : 1
Format : AC-3
Format/Info : Audio Coding 3
Mode extension : CM (complete main)
Format settings, Endianness : Big
Codec ID : 2000
Bit rate mode : Constant
Bit rate : 192 Kbps
Channel(s) : 2 channels
Channel positions : Front: L R
Sampling rate : 48.0 KHz
Compression mode : Lossy
Delay relative to video : 3ms
Stream size : 2.61 MiB (20%)
Alignment : Split accross interleaves
Interleave, duration : 42 ms (1.00 video frame)
Interleave, preload duration : 500 ms

Скриншоты

[Профиль] [ЛС]
Кто просматривает тему:

Показать сообщения:    

Текущее время: Сегодня 04:24

Часовой пояс: GMT



Вы не можете начинать темы
Вы не можете отвечать на сообщения
Вы не можете редактировать свои сообщения
Вы не можете удалять свои сообщения
Вы не можете голосовать в опросах
Вы не можете прикреплять файлы к сообщениям
Вы не можете скачивать файлы