Дочь / Daughter (2015) BDRemux 1080p | L1

 
Автор Сообщение

ODESSA ®

Пол:

Стаж: 1 год 7 месяцев

Сообщений: 421

Откуда: ODESSA



Награды: Нет

Торрент-статистика

Создавать темы 29-Июн-2016 13:18

[Цитировать]

Дочь / Daughter
Страна: Гонконг
Производство: Sundream Motion Pictures
Год выпуска: 2015
Жанр: ужасы, триллер, драма
Продолжительность: 01:25:31
Режиссер: Пэнг Чун Чан
Автор сценария: Пэнг Чун Чан
В ролях: Бо-Бо Фанг, Кара Хюи, Винг-янь Янни Чан, Так-Бун Вонг
Описание: Шерон — известный психотерапевт, занятая успешной собственной практикой. У нее есть дочь Дженни, но в последнее время девушка сама не своя — она словно специально провоцирует мать, а также прилюдно позорит ее во время выходов в свет. После того, как Дженни на важном приеме разбивает драгоценность за миллион долларов, а затем мочится на стол, карьера Шерон летит под откос (как можно доверять психотерапевту, у которой чокнутая дочь..?), но это уже неважно, потому что женщина понимает — причины такого поведения дочери не в «сложном возрасте»...

Перевод: Любительский (одноголосый) | ngame
Субтитры: русские, английские-Качество: BDRemux 1080p
Формат: МКV
Видео кодек: AVC
Аудио кодек: АС3 | DTS
Видео: 1920x1080 (16:9), 24.000 fps, MPEG-4 AVC ~25.4 Мbps avg
Аудио №1: 48.0 kHz, AC3 Dolby Digital, 2/0 (L,R) ch, ~192 kbps | RUS
Аудио №2: 48.0 kHz, Digital Theater Systems Master Audio, 3/2 (L,C,R,l,r) + LFE ch, ~2235 kbps | CHI / Cantonese
Аудио №3: 48.0 kHz, Digital Theater Systems Master Audio, 3/2 (L,C,R,l,r) + LFE ch, ~2231 kbps | CHI / Mandarin
Формат субтитров: UTF-8 Plain Text
Дата премьеры (мир): 19 ноября 2015

Media Info

Уникальный идентификатор : 230979968842227286178337278579328653696 (0xADC51FB4F0D8D02999E69976A4839980)
Полное имя : Daughter.2015.BDRemux.1080p_by_vedigo.mkv
Формат : Matroska
Версия формата : Version 4 / Version 2
Размер файла : 18,0 Гбайт
Продолжительность : 1 ч. 25 м.
Режим общего битрейта : Переменный
Общий поток : 30,1 Мбит/сек
Название фильма : Daughter.2015.BDRemux.1080p_by_vedigo
Дата кодирования : UTC 2016-06-28 05:58:32
Программа кодирования : mkvmerge v9.2.0 ('Photograph') 64bit
Библиотека кодирования : libebml v1.3.3 + libmatroska v1.4.4
Видео
Идентификатор : 1
Формат : AVC
Формат/Информация : Advanced Video Codec
Параметр CABAC формата : Да
Параметр ReFrames формата : 4 кадра
Параметр GOP формата : M=3, N=24
Идентификатор кодека : V_MPEG4/ISO/AVC
Продолжительность : 1 ч. 25 м.
Вид битрейта : Переменный
Битрейт : 25,4 Мбит/сек
Максимальный битрейт : 32,0 Мбит/сек
Ширина : 1920 пикселей
Высота : 1080 пикселей
Соотношение сторон : 16:9
Режим частоты кадров : Постоянный
Частота кадров : 24,000 кадра/сек
Стандарт вещания : NTSC
Цветовое пространство : YUV
Субдискретизация насыщенности : 4:2:0
Битовая глубина : 8 бит
Тип развёртки : Прогрессивная
Бит/(Пиксели*Кадры) : 0.511
Размер потока : 15,2 Гбайт (85%)
Заголовок : Daughter.2015.BDRemux.1080p_by_vedigo
Default : Да
Forced : Нет
Цветовой диапазон : Limited
Основные цвета : BT.709
Характеристики трансфера : BT.709
Коэффициенты матрицы : BT.709
Аудио #1
Идентификатор : 2
Формат : AC-3
Формат/Информация : Audio Coding 3
Расширение режима : CM (complete main)
Параметр Endianness формата : Big
Идентификатор кодека : A_AC3
Продолжительность : 1 ч. 25 м.
Вид битрейта : Постоянный
Битрейт : 192 Кбит/сек
Каналы : 2 канала
Расположение каналов : Front: L R
Частота : 48,0 КГц
Частота кадров : 31,250 кадров/сек (1536 spf)
Метод сжатия : С потерями
Размер потока : 117 Мбайт (1%)
Заголовок : VO @ ngame
Язык : Russian
Default : Да
Forced : Нет
Аудио #2
Идентификатор : 3
Формат : DTS
Формат/Информация : Digital Theater Systems
Профиль формата : MA / Core
Режим : 16
Параметр Endianness формата : Big
Идентификатор кодека : A_DTS
Продолжительность : 1 ч. 25 м.
Вид битрейта : Переменный / Постоянный
Битрейт : 2235 Кбит/сек / 1509 Кбит/сек
Каналы : 6 каналов
Расположение каналов : Front: L C R, Side: L R, LFE
Частота : 48,0 КГц
Частота кадров : 93,750 кадра/сек (512 spf)
Битовая глубина : 16 бит
Метод сжатия : Без потерь / Lossy
Размер потока : 1,34 Гбайт (7%)
Заголовок : Cantonese
Язык : Chinese
Default : Нет
Forced : Нет
Аудио #3
Идентификатор : 4
Формат : DTS
Формат/Информация : Digital Theater Systems
Профиль формата : MA / Core
Режим : 16
Параметр Endianness формата : Big
Идентификатор кодека : A_DTS
Продолжительность : 1 ч. 25 м.
Вид битрейта : Переменный / Постоянный
Битрейт : 2231 Кбит/сек / 1509 Кбит/сек
Каналы : 6 каналов
Расположение каналов : Front: L C R, Side: L R, LFE
Частота : 48,0 КГц
Частота кадров : 93,750 кадра/сек (512 spf)
Битовая глубина : 16 бит
Метод сжатия : Без потерь / Lossy
Размер потока : 1,33 Гбайт (7%)
Заголовок : Mandarin
Язык : Chinese
Default : Нет
Forced : Нет
Текст #1
Идентификатор : 5
Формат : UTF-8
Идентификатор кодека : S_TEXT/UTF8
Идентификатор кодека/Информация : UTF-8 Plain Text
Продолжительность : 1 ч. 21 м.
Битрейт : 44 бит/сек
Count of elements : 637
Размер потока : 26,8 Кбайт (0%)
Заголовок : Subtitle rus @ Enigma
Язык : Russian
Default : Нет
Forced : Нет
Текст #2
Идентификатор : 6
Формат : UTF-8
Идентификатор кодека : S_TEXT/UTF8
Идентификатор кодека/Информация : UTF-8 Plain Text
Продолжительность : 1 ч. 21 м.
Битрейт : 26 бит/сек
Count of elements : 638
Размер потока : 15,8 Кбайт (0%)
Заголовок : Subtitle eng
Язык : English
Default : Нет
Forced : Нет
Меню
00:00:00.000 : :Глава 01
00:06:29.708 : :Глава 02
00:09:46.083 : :Глава 03
00:14:34.083 : :Глава 04
00:20:52.333 : :Глава 05
00:24:08.208 : :Глава 06
00:31:15.667 : :Глава 07
00:34:18.625 : :Глава 08
00:39:56.625 : :Глава 09
00:46:00.542 : :Глава 10
00:52:29.250 : :Глава 11
00:55:42.417 : :Глава 12
00:59:18.083 : :Глава 13
01:06:24.375 : :Глава 14
01:10:38.292 : :Глава 15
01:14:40.375 : :Глава 16
01:20:50.958 : :Глава 17
01:23:38.375 : :Глава 18

Скриншоты

[Профиль] [ЛС]
Показать сообщения:    

Текущее время: Сегодня 01:29

Часовой пояс: GMT



Вы не можете начинать темы
Вы не можете отвечать на сообщения
Вы не можете редактировать свои сообщения
Вы не можете удалять свои сообщения
Вы не можете голосовать в опросах
Вы не можете прикреплять файлы к сообщениям
Вы не можете скачивать файлы