Дочь / Daughter (2015) HDRip | L1

 
Автор Сообщение

BOSS ®

Пол:

Стаж: 2 года 1 месяц

Сообщений: 3735

Откуда: ODESSA



Награды: 20 (Подробнее)

Top Keeper 2 (Количество: 1) Top Releaser 4 (Количество: 1) За внесенный вклад в развитие сайта (Количество: 1)
Торрент-статистика

Создавать темы 26-Апр-2016 17:44

[Цитировать]

Дочь / Daughter
Страна: Гонконг
Производство: Sundream Motion Pictures
Год выпуска: 2015
Жанр: ужасы, триллер, драма
Продолжительность: 01:25:31
Режиссер: Пэнг Чун Чан
Автор сценария: Пэнг Чун Чан
В ролях: Бо-Бо Фанг, Кара Хюи, Янни Чан Винг-янь, Так-Бун Вонг
Описание: Шерон — известный психотерапевт, занятая успешной собственной практикой. У нее есть дочь Дженни, но в последнее время девушка сама не своя — она словно специально провоцирует мать, а также прилюдно позорит ее во время выходов в свет. После того, как Дженни на важном приеме разбивает драгоценность за миллион долларов, а затем мочится на стол, карьера Шерон летит под откос (как можно доверять психотерапевту, у которой чокнутая дочь?), но это уже неважно, потому что женщина понимает — причины такого поведения дочери не в «сложном возрасте».

Перевод: Любительский (одноголосый, закадровый) | ngame
Субтитры: нет-Качество: HDRip
Формат: АVI
Видео кодек: XviD
Аудио кодек: АС3
Видео: 720x304 (2.35:1), 23.976 fps, XviD 67 ~2 088 kbps avg, 0.398 bit/pixel
Аудио: 48.0 kHz, AC3 Dolby Digital, 2/0 (L,R) ch, ~192 kbps
Дата премьеры (мир): 19 ноября 2015

Media Info

Complete name : Daughter 2015_HDRip_ngame.avi
Format : AVI
Format/Info : Audio Video Interleave
File size : 1.37 GiB
Duration : 1h 25mn
Overall bit rate : 2 290 Kbps
Writing application : VirtualDubMod 1.5.10.2 (build 2540/release)
Writing library : VirtualDubMod build 2540/release
Video
ID : 0
Format : MPEG-4 Visual
Format profile : Advanced Simple@L5
Format settings, BVOP : 2
Format settings, QPel : No
Format settings, GMC : No warppoints
Format settings, Matrix : Default (H.263)
Codec ID : XVID
Codec ID/Hint : XviD
Duration : 1h 25mn
Bit rate : 2 088 Kbps
Width : 720 pixels
Height : 304 pixels
Display aspect ratio : 2.35:1
Frame rate : 23.976 fps
Color space : YUV
Chroma subsampling : 4:2:0
Bit depth : 8 bits
Scan type : Progressive
Compression mode : Lossy
Bits/(Pixel*Frame) : 0.398
Stream size : 1.25 GiB (91%)
Writing library : XviD 67
Audio
ID : 1
Format : AC-3
Format/Info : Audio Coding 3
Codec ID : 2000
Duration : 1h 25mn
Bit rate mode : Constant
Bit rate : 192 Kbps
Channel(s) : 2 channels
Sampling rate : 48.0 KHz
Compression mode : Lossy
Stream size : 118 MiB (8%)
Alignment : Split accross interleaves
Interleave, duration : 42 ms (1.00 video frame)
Interleave, preload duratio : 500 ms

Скриншоты

[Профиль] [ЛС]
Показать сообщения:    

Текущее время: Сегодня 16:38

Часовой пояс: GMT



Вы не можете начинать темы
Вы не можете отвечать на сообщения
Вы не можете редактировать свои сообщения
Вы не можете удалять свои сообщения
Вы не можете голосовать в опросах
Вы не можете прикреплять файлы к сообщениям
Вы не можете скачивать файлы