Дочь шеф-повара / La fille du chef (Сильви Эйм / Sylvie Ayme) [2007, Франция, Швейцария, Комедия, VHSRip] MVO

 
Автор Сообщение

TorrentFilm ®

Пол:

Стаж: 2 года

Сообщений: 7741



Награды: Нет

Торрент-статистика

Создавать темы 20-Июл-2015 00:11

[Цитировать]

Дочь шеф-повара / La fille du chef
Страна: Франция, Швейцария
Жанр: Комедия
Год выпуска: 2007
Продолжительность: 01:28:11
Перевод: Профессиональный (многоголосый закадровый)
Cубтитры: нет
Оригинальная аудиодорожка: нет
Режиссер: Сильви Эйм / Sylvie Ayme
В ролях: Ги Маршан, Клэр Боротра, Эрик Бергер, Дамьен Дорса, Филипп Маньян, Оливье Саладен, Карин Белли, Аксель Аббадье, Карло Ферранте, Микеланджело Марчезе
Описание: Эдмон Мартен – "БОМЖ по-французски", но он гениальный повар. Его дочь, с которой он не виделся много лет, работает менеджером большого отеля. На её день рождения Эдмон появляется в отеле, где его принимают за известную персону...
Доп. информация: Релиз
Большое спасибо за предоставленную видеокассету yanina.tet
Оцифровка кассеты Urasiko
Сэмпл: http://multi-up.com/1058161
Качество видео: VHSRip
Формат видео: AVI
Видео: DivX, 704x432 (1.63:1), 25 fps, 997 kbps avg, 0.13 bit/pixel
Аудио: MP3, 48 KHz, 128 Kbps, 2 channels

MediaInfo

General
Complete name : F:\Doch Shef-Povara VHSRip.avi
Format : AVI
Format/Info : Audio Video Interleave
File size : 716 MiB
Duration : 1h 28mn
Overall bit rate : 1 135 Kbps
Writing application : VirtualDubMod 1.5.10.2 (build 2540/release)
Writing library : VirtualDubMod build 2540/release
Video
ID : 0
Format : MPEG-4 Visual
Format settings, BVOP : 1
Format settings, QPel : No
Format settings, GMC : No warppoints
Format settings, Matrix : Default (H.263)
Codec ID : DX50
Codec ID/Hint : DivX 5
Duration : 1h 28mn
Bit rate : 998 Kbps
Width : 704 pixels
Height : 432 pixels
Display aspect ratio : 16:10
Frame rate : 25.000 fps
Color space : YUV
Chroma subsampling : 4:2:0
Bit depth : 8 bits
Scan type : Progressive
Compression mode : Lossy
Bits/(Pixel*Frame) : 0.131
Stream size : 629 MiB (88%)
Writing library : DivX 6.8.5 (UTC 2009-08-20)
Audio
ID : 1
Format : MPEG Audio
Format version : Version 1
Format profile : Layer 3
Mode : Joint stereo
Mode extension : MS Stereo
Codec ID : 55
Codec ID/Hint : MP3
Duration : 1h 28mn
Bit rate mode : Constant
Bit rate : 128 Kbps
Channel(s) : 2 channels
Sampling rate : 48.0 KHz
Compression mode : Lossy
Stream size : 80.7 MiB (11%)
Alignment : Split accross interleaves
Interleave, duration : 40 ms (1.00 video frame)
Interleave, preload duration : 500 ms

Скриншот c названием фильма

Скриншоты

[Профиль] [ЛС]

Создавать темы 06-Авг-2015 22:23 (спустя 17 дней)

Топик был перенесен из форума Фильмы до 2014 года в форум Фильмы до 2012 года
sergej644
 
Кто просматривает тему:

Показать сообщения:    

Текущее время: Сегодня 08:29

Часовой пояс: GMT



Вы не можете начинать темы
Вы не можете отвечать на сообщения
Вы не можете редактировать свои сообщения
Вы не можете удалять свои сообщения
Вы не можете голосовать в опросах
Вы не можете прикреплять файлы к сообщениям
Вы не можете скачивать файлы