Дочь и мать её / Snatched (2017) BDRemux 1080p | Лицензия

 
Автор Сообщение

Swager ®

Пол:

Стаж: 2 года

Сообщений: 981



Награды: 3 (Подробнее)

Mega Seeder 2 (Количество: 1) Top Releaser 2 (Количество: 1) Mega Seeder 1 (Количество: 1)
Торрент-статистика

Создавать темы 05-Окт-2017 07:28

[Цитировать]

«This is the closest they've been in years»
Информация о фильме
Название: Дочь и мать её
Оригинальное название: Snatched
Год выхода: 2017
Жанр: Боевик, комедия
Режиссер: Джонатан Левин
В ролях: Эми Шумер, Ким Карамел, Рэйвен Гудвин, Кэти Дипполд, Рэндолл Парк, Голди Хоун, Айк Баринхолц, Luis R. Espinoza, Luis F. Ramirez, Дэниэл Бесс
О фильме:
Взбалмошной Эмили уже за 30, и её только что бросил парень. Теперь девушке нужно срочно найти попутчика для путешествия в Эквадор вместо выбывшего бойфренда. Эмили удается уговорить на совместную поездку свою сверхосторожную маму. Но вместо спокойного семейного отдыха дочь и мать её ждет похищение. И когда такие разные женщины оказываются вместе в заложниках, их родственная связь испытывает нешуточную проверку на прочность. Возможно, они станут даже ближе друг другу, но только если сумеют сбежать и выжить в джунглях.

Страна: США
Студия: 20th Century Fox Film Corporation, Chernin Entertainment, Feigco Entertainment
Продолжительность: 01:30:30
Перевод: Профессиональный (многоголосый, закадровый) | Blu-ray EUR
Файл
Качество: BDRip 1080p
Формат: MKV
Кодек: MPEG-4 AVC
Видео: 1920x1080 (16:9), 23.976 fps, MPEG-4 AVC ~ 28,8 Мbps avg, 0.580 bit/pixel
Аудио: DTS, 48,0 kHz, 6 ch, ~768.00 kbps avg | русский | Blu-ray EUR
Аудио: АС3, 48,0 kHz, 6 ch, ~448.00 kbps avg | русский | Blu-ray EUR
Аудио: DTS-HD MA, 48,0 kHz, 8 ch, ~4780.00 kbps avg | английский | Оригинал
Субтитры: Русские (Полные), английские (SDH)

Инфо-файл

Общее
Уникальный идентификатор : 190801514510942696600290607006176034916 (0x8F8B08F74636FA78993E3CC8FFBCC064)
Полное имя : Snatched.2017.1080p.Blu.Ray.REMUX.Rus.Eng.DTS.5.1.mkv
Формат : Matroska
Версия формата : Version 4 / Version 2
Размер файла : 22,0 Гбайт
Продолжительность : 1 ч. 30 м.
Режим общего битрейта : Переменный
Общий поток : 34,8 Мбит/сек
Название фильма : Дочь и мать её (2017)
Дата кодирования : UTC 2017-10-03 11:22:24
Программа кодирования : mkvmerge v9.7.1 ('Pandemonium') 64bit
Библиотека кодирования : libebml v1.3.4 + libmatroska v1.4.5
Видео
Идентификатор : 1
Формат : AVC
Формат/Информация : Advanced Video Codec
Профиль формата : High@L4.1
Параметр CABAC формата : Да
Параметр ReFrames формата : 2 кадра
Идентификатор кодека : V_MPEG4/ISO/AVC
Продолжительность : 1 ч. 30 м.
Вид битрейта : Переменный
Битрейт : 28,8 Мбит/сек
Ширина : 1920 пикселей
Высота : 1080 пикселей
Соотношение сторон : 16:9
Режим частоты кадров : Постоянный
Частота кадров : 23,976 (24000/1001) кадра/сек
Цветовое пространство : YUV
Субдискретизация насыщенности : 4:2:0
Битовая глубина : 8 бит
Тип развёртки : Прогрессивная
Бит/(Пиксели*Кадры) : 0.580
Размер потока : 18,2 Гбайт (83%)
Заголовок : Snatched.2017.Blu.Ray.REMUX.1080p.Rus.Eng.DTS.5.1
Язык : English
Default : Да
Forced : Нет
Аудио #1
Идентификатор : 2
Формат : DTS
Формат/Информация : Digital Theater Systems
Режим : 16
Параметр Endianness формата : Big
Идентификатор кодека : A_DTS
Продолжительность : 1 ч. 30 м.
Вид битрейта : Постоянный
Битрейт : 768 Кбит/сек
Каналы : 6 каналов
Расположение каналов : Front: L C R, Side: L R, LFE
Частота : 48,0 КГц
Частота кадров : 93,750 кадра/сек (512 spf)
Битовая глубина : 24 бит
Метод сжатия : С потерями
Размер потока : 497 Мбайт (2%)
Заголовок : Blu-ray EUR
Язык : Russian
Default : Да
Forced : Нет
Аудио #2
Идентификатор : 3
Формат : AC-3
Формат/Информация : Audio Coding 3
Параметр Endianness формата : Big
Идентификатор кодека : A_AC3
Продолжительность : 1 ч. 30 м.
Вид битрейта : Постоянный
Битрейт : 448 Кбит/сек
Каналы : 6 каналов
Расположение каналов : Front: L C R, Side: L R, LFE
Частота : 48,0 КГц
Частота кадров : 31,250 кадров/сек (1536 spf)
Битовая глубина : 16 бит
Метод сжатия : С потерями
Размер потока : 290 Мбайт (1%)
Заголовок : Blu-ray EUR
Язык : Russian
Default : Нет
Forced : Нет
Аудио #3
Идентификатор : 4
Формат : DTS
Формат/Информация : Digital Theater Systems
Профиль формата : MA / ES Matrix / Core
Режим : 16
Параметр Endianness формата : Big
Идентификатор кодека : A_DTS
Продолжительность : 1 ч. 30 м.
Вид битрейта : Переменный / Постоянный / Постоянный
Битрейт : 4780 Кбит/сек / 1509 Кбит/сек / 1509 Кбит/сек
Каналы : 8 каналов / 7 каналов / 6 каналов
Расположение каналов : Front: L C R, Side: L R, Back: L R, LFE / Front: L C R, Side: L R, Back: C, LFE / Front: L C R, Side: L R, LFE
Частота : 48,0 КГц
Частота кадров : 93,750 кадра/сек (512 spf)
Битовая глубина : 24 бит
Метод сжатия : Без потерь / Lossy / Lossy
Размер потока : 3,02 Гбайт (14%)
Язык : English
Default : Нет
Forced : Нет
Текст #1
Идентификатор : 5
Формат : UTF-8
Идентификатор кодека : S_TEXT/UTF8
Идентификатор кодека/Информация : UTF-8 Plain Text
Продолжительность : 1 ч. 29 м.
Битрейт : 118 бит/сек
ElementCount : 1696
Размер потока : 77,7 Кбайт (0%)
Заголовок : Full
Язык : Russian
Default : Нет
Forced : Нет
Текст #2
Идентификатор : 6
Формат : UTF-8
Идентификатор кодека : S_TEXT/UTF8
Идентификатор кодека/Информация : UTF-8 Plain Text
Продолжительность : 1 ч. 24 м.
Битрейт : 90 бит/сек
ElementCount : 2082
Размер потока : 55,9 Кбайт (0%)
Заголовок : SDH
Язык : English
Default : Нет
Forced : Нет
Меню
00:00:00.000 : en:00:00:00.000
00:03:27.833 : en:00:03:27.833
00:05:44.219 : en:00:05:44.219
00:08:34.097 : en:00:08:34.097
00:12:26.120 : en:00:12:26.120
00:16:27.403 : en:00:16:27.403
00:21:22.281 : en:00:21:22.281
00:25:15.597 : en:00:25:15.597
00:29:30.811 : en:00:29:30.811
00:33:22.334 : en:00:33:22.334
00:38:31.142 : en:00:38:31.142
00:42:01.185 : en:00:42:01.185
00:46:11.978 : en:00:46:11.978
00:49:14.201 : en:00:49:14.201
00:53:37.798 : en:00:53:37.798
00:56:13.036 : en:00:56:13.036
00:58:52.904 : en:00:58:52.904
01:00:59.698 : en:01:00:59.698
01:03:53.997 : en:01:03:53.997
01:06:53.343 : en:01:06:53.343
01:14:02.104 : en:01:14:02.104
01:17:14.839 : en:01:17:14.839
01:19:43.612 : en:01:19:43.612
01:22:43.834 : en:01:22:43.834

Скриншоты

[Профиль] [ЛС]
Кто просматривает тему:

Показать сообщения:    

Текущее время: Сегодня 19:05

Часовой пояс: GMT



Вы не можете начинать темы
Вы не можете отвечать на сообщения
Вы не можете редактировать свои сообщения
Вы не можете удалять свои сообщения
Вы не можете голосовать в опросах
Вы не можете прикреплять файлы к сообщениям
Вы не можете скачивать файлы