Дочка (2008) DVDRip от ivandubskoj | Лицензия

 
Автор Сообщение

sergej644 ®

Пол:

Стаж: 4 года 11 месяцев

Сообщений: 6040

Откуда: Soviet Union



Награды: Нет

Торрент-статистика

Создавать темы 06-Дек-2014 19:25

[Цитировать]

Информация о фильме
Оригинальное название: Дочка
Год выхода: 2008
Жанр: Мелодрама, драма
Режиссёр: Максим Мокрушев
В ролях: Владимир Симонов, Татьяна Арнтгольц, Виктор Раков, Юлия Маврина, Алёна Ивченко, Раиса Рязанова, Юрий Осипов, Татьяна Митиенко, Оксана Дорохина, Андрей Тартаков
О фильме: Преуспевающий бизнесмен случайно узнает об измене своей жены с его лучшим другом. В одночасье он теряет и друга и жену. В порыве отчаяния уезжает в город своей первой любви. Однажды в случайной проститутке он узнает свою дочь, родившуюся без него в далеком городе. Но не так просто обрести счастье. Да и дочь ли это?

Выпущено: Россия, БФГ-Медиа-Продакшн, Мостелефильм
Продолжительность: 01:30:00
Перевод: Не требуется
Файл
Качество: DVDRip [Исходник: DVD-5]
Видео: XviD, 2126 Кбит/с, 704x400 (16:9), 25 кадр/с
Аудио: Русский, Dolby AC3, 48000 Гц, 192 Кбит/с, 2 канала (Стерео)

MediaInfo

General
Complete name : Dochka.2008.DVDRip.avi
Format : AVI
Format/Info : Audio Video Interleave
File size : 1.46 GiB
Duration : 1h 30mn
Overall bit rate : 2 326 Kbps
Movie name : Дочка (2008) DVDRip
Genre : Мелодрама, драма
Recorded date : 06.12.2014
Writing application : VirtualDubMod 1.5.10.3 (build 2550/release)
Writing library : VirtualDubMod build 2550/release
Copyright : rip by ivandubskoj
Video
ID : 0
Format : MPEG-4 Visual
Format profile : Advanced Simple@L5
Format settings, BVOP : 1
Format settings, QPel : No
Format settings, GMC : No warppoints
Format settings, Matrix : Default (MPEG)
Codec ID : XVID
Codec ID/Hint : XviD
Duration : 1h 30mn
Bit rate : 2 126 Kbps
Width : 704 pixels
Height : 400 pixels
Display aspect ratio : 16:9
Frame rate : 25.000 fps
Color space : YUV
Chroma subsampling : 4:2:0
Bit depth : 8 bits
Scan type : Progressive
Compression mode : Lossy
Bits/(Pixel*Frame) : 0.302
Stream size : 1.34 GiB (91%)
Writing library : XviD 73
Audio
ID : 1
Format : AC-3
Format/Info : Audio Coding 3
Mode extension : CM (complete main)
Codec ID : 2000
Duration : 1h 30mn
Bit rate mode : Constant
Bit rate : 192 Kbps
Channel(s) : 2 channels
Channel positions : Front: L R
Sampling rate : 48.0 KHz
Bit depth : 16 bits
Compression mode : Lossy
Stream size : 124 MiB (8%)
Alignment : Split accross interleaves
Interleave, duration : 64 ms (1.60 video frames)
Interleave, preload duration : 500 ms
Title : Russian

Скриншоты

Автор рипа - ivandubskoj
[Профиль] [ЛС]

Создавать темы 06-Авг-2015 22:17 (спустя 8 месяцев)

Топик был перенесен из форума Фильмы до 2014 года в форум Фильмы до 2012 года
sergej644
 
Кто просматривает тему:

Форум Тема Автор Размер
Отечественная Классика Александр Сергеевич Пушкин - Капитанская дочка [Михаил Горевой, 2014] Magnat 233 MB
Отечественные cериалы Дудочка крысолова [01-04 из 04] (2015) WEB-DL 720p от Files-x достали все 2.22 GB
Отечественные cериалы Дудочка крысолова [01-04 из 04] (2015) WEB-DLRip от Files-x достали все 2.34 GB
Отечественные мультфильмы Звёздочка (Светлана Андрианова) [2014, РФ, мультфильм, DVDScreener] TorrentFilm 98 MB
Фильмы до 2012 года Звездочка моя ненаглядная (2000) DVDRip-AVC от ExKinoRay sergej644 1.47 GB
Фильмы 2006-2008 года Ничего себе поездочка 2 / Joy Ride: Dead Ahead (Луис Морно / Louis Morneau) [2008, США, Канада, боевик, триллер, DVDRip] MVO TorrentFilm 1.46 GB
Фильмы 2014 года Ничего себе поездочка 3 / Joy Ride 3 (Деклан О’Брайэн / Declan O\'Brien) [2014, США, триллер, BDRip-AVC] VO (datynet) + Sub Rus + Original Eng bot 2.18 GB
Фильмы 2014 года Ничего себе поездочка 3 / Joy Ride 3 (Деклан О’Брайэн / Declan O\'Brien) [2014, США, триллер, BDRip] VO bot 744 MB
Показать сообщения:    

Текущее время: Сегодня 02:45

Часовой пояс: GMT



Вы не можете начинать темы
Вы не можете отвечать на сообщения
Вы не можете редактировать свои сообщения
Вы не можете удалять свои сообщения
Вы не можете голосовать в опросах
Вы не можете прикреплять файлы к сообщениям
Вы не можете скачивать файлы