Достучаться до небес / Knockin' On Heaven's Door (Томас Ян)[1997, Боевик, драма, комедия, BDRip] 1080p | D, P

 
Автор Сообщение

sergej644 ®

Пол:

Стаж: 4 года 11 месяцев

Сообщений: 6038

Откуда: Soviet Union



Награды: Нет

Торрент-статистика

Создавать темы 13-Июл-2015 08:49

[Цитировать]

--Достучаться до небес / Knockin' On Heaven's Doortop 250/ 13 Информация о фильме
Название: Достучаться до небес
Оригинальное название: Knockin' On Heaven's Door
Год выпуска: 1997
Жанр: Боевик, драма, комедия
Выпущено: Германия, Бельгия, Buena Vista International Film Production, Mr. Brown Entertainment
Режиссер: Томас Ян
В ролях: Тиль Швайгер, Ян Йозеф Лиферс, Тьерри Ван Вервеке, Мориц Бляйбтрой, Хуб Стапель, Леонард Лэнсинк, Ральф Херфорт, Конни Фробёсс, Рутгер Хауэр, Кристин Паул, Ханнес Янике, Уилли Томчик, Владимир Вейгл, Дженни Элверс, Коринна Харфаух, Тобиас Шенке, Харк Бом, Мюриэль Баумейстер, Кристоф Отт, Флориан Фитц, Ксения Сиберг, Маркус Нафкен, Тайрон Рикеттс, Сальваторе Паскаль, Густав Адольф, Антон Раттингер, Николя Бодо, Зонке Вортманн, Томас Ян, Янине Кунце, Бернд Айхингер, Дана Карлсен
Перевод: Дублированный, профессиональный многоголосый-Сюжет фильма
«Быстрый автомобиль, миллион марок в багажнике, и всего одна неделя жить»
Судьба сводит героев картины в больнице, где врачи выносят им смертный приговор. Счет времени их жизней идет на часы. Дальнейшие события в фильме разворачиваются в стремительном темпе. Украв машину с миллионом немецких марок в багажнике, они сбегают из больницы. Их преследуют наемные убийцы, они становятся грабителями поневоле, за ними гонится полиция, они попадают в бордель. Но тем не менее продолжают мчаться вперед, навстречу своей Судьбе.
-Файл
Качество: BDRip 1080p (исходник Blu-ray)
Видео: 1918x814, 10494 Кбит/сек, 23,976 кадр/сек, AVC, x264, High@L4.1, 0.280 Бит/[Пиксели*Кадры], 2pass
Аудио 1: AC-3, 640 Кбит/сек, 6 канала(ов), 48,0 КГц - Профессиональный (многоголосый, закадровый) с лицензии CP Digital
Аудио 2: AC-3, 384 Кбит/сек, 2 канала(ов), 48,0 КГц - Профессиональный (полное дублирование) Мосфильм - (по умолчанию)
Аудио 3: AC-3, 640 Кбит/сек, 6 канала(ов), 48,0 КГц - Немецкий
Аудио 4: AC-3, 640 Кбит/сек, 6 канала(ов), 48,0 КГц - Английский
Чаптеры: есть
Субтитры: Русские (CP Digital), русские (Тивионика), немецкие, английские
Продолжительность: 01:28:56
-

Скриншоты

MediaInfo

Format                                   : Matroska
Format version                           : Version 2
File size                                : 7.95 GiB
Duration                                 : 1h 28mn
Overall bit rate                         : 12.8 Mbps
Movie name                               : Dostuchat'sja do nebes.(1997).BDRip.1080p.[denis100]
Encoded date                             : UTC 2013-12-25 07:30:08
Writing application                      : mkvmerge v5.8.0 ('No Sleep / Pillow') built on Sep  2 2012 15:37:04
Writing library                          : libebml v1.2.3 + libmatroska v1.3.0
Video
ID                                       : 1
Format                                   : AVC
Format/Info                              : Advanced Video Codec
Format profile                           : High@L4.1
Format settings, CABAC                   : Yes
Format settings, ReFrames                : 5 frames
Codec ID                                 : V_MPEG4/ISO/AVC
Duration                                 : 1h 28mn
Bit rate                                 : 10.5 Mbps
Width                                    : 1 918 pixels
Height                                   : 814 pixels
Display aspect ratio                     : 2.35:1
Frame rate mode                          : Constant
Frame rate                               : 23.976 fps
Color space                              : YUV
Chroma subsampling                       : 4:2:0
Bit depth                                : 8 bits
Scan type                                : Progressive
Bits/(Pixel*Frame)                       : 0.280
Stream size                              : 6.36 GiB (80%)
Title                                    : Dostuchat'sja do nebes.(1997).BDRip.1080p.[denis100]
Writing library                          : x264 core 140 r2377 1ca7bb9
Encoding settings                        : cabac=1 / ref=5 / deblock=1:-3:-3 / analyse=0x3:0x133 / me=umh / subme=11 / psy=1 / psy_rd=1.00:0.10 / mixed_ref=1 / me_range=32 / chroma_me=1 / trellis=2 / 8x8dct=1 / cqm=0 / deadzone=21,11 / fast_pskip=0 / chroma_qp_offset=-3 / threads=6 / lookahead_threads=1 / sliced_threads=0 / nr=0 / decimate=0 / interlaced=0 / bluray_compat=0 / constrained_intra=0 / bframes=8 / b_pyramid=2 / b_adapt=2 / b_bias=0 / direct=3 / weightb=1 / open_gop=0 / weightp=2 / keyint=240 / keyint_min=23 / scenecut=40 / intra_refresh=0 / rc=2pass / mbtree=0 / bitrate=9 / ratetol=1.0 / qcomp=0.60 / qpmin=0 / qpmax=69 / qpstep=4 / cplxblur=20.0 / qblur=0.5 / ip_ratio=1.40 / pb_ratio=1.30 / aq=1:0.90
Language                                 : English
Default                                  : Yes
Forced                                   : No
Audio #1
ID                                       : 2
Format                                   : AC-3
Format/Info                              : Audio Coding 3
Mode extension                           : CM (complete main)
Format settings, Endianness              : Big
Codec ID                                 : A_AC3
Duration                                 : 1h 28mn
Bit rate mode                            : Constant
Bit rate                                 : 640 Kbps
Channel count                            : 6 channels
Channel positions                        : Front: L C R, Side: L R, LFE
Sampling rate                            : 48.0 KHz
Bit depth                                : 16 bits
Compression mode                         : Lossy
Stream size                              : 407 MiB (5%)
Title                                    : Профессиональный (многоголосый, закадровый) с лицензии CP Digital
Language                                 : Russian
Default                                  : No
Forced                                   : No
Audio #2
ID                                       : 3
Format                                   : AC-3
Format/Info                              : Audio Coding 3
Mode extension                           : CM (complete main)
Format settings, Endianness              : Big
Codec ID                                 : A_AC3
Duration                                 : 1h 28mn
Bit rate mode                            : Constant
Bit rate                                 : 384 Kbps
Channel count                            : 2 channels
Channel positions                        : Front: L R
Sampling rate                            : 48.0 KHz
Bit depth                                : 16 bits
Compression mode                         : Lossy
Stream size                              : 244 MiB (3%)
Title                                    : Профессиональный (полное дублирование) Мосфильм
Language                                 : Russian
Default                                  : Yes
Forced                                   : No
Audio #3
ID                                       : 4
Format                                   : AC-3
Format/Info                              : Audio Coding 3
Mode extension                           : CM (complete main)
Format settings, Endianness              : Big
Codec ID                                 : A_AC3
Duration                                 : 1h 28mn
Bit rate mode                            : Constant
Bit rate                                 : 640 Kbps
Channel count                            : 6 channels
Channel positions                        : Front: L C R, Side: L R, LFE
Sampling rate                            : 48.0 KHz
Bit depth                                : 16 bits
Compression mode                         : Lossy
Stream size                              : 407 MiB (5%)
Title                                    : Немецкий
Language                                 : German
Default                                  : No
Forced                                   : No
Audio #4
ID                                       : 5
Format                                   : AC-3
Format/Info                              : Audio Coding 3
Mode extension                           : CM (complete main)
Format settings, Endianness              : Big
Codec ID                                 : A_AC3
Duration                                 : 1h 28mn
Bit rate mode                            : Constant
Bit rate                                 : 640 Kbps
Channel count                            : 6 channels
Channel positions                        : Front: L C R, Side: L R, LFE
Sampling rate                            : 48.0 KHz
Bit depth                                : 16 bits
Compression mode                         : Lossy
Stream size                              : 407 MiB (5%)
Title                                    : Английский
Language                                 : English
Default                                  : No
Forced                                   : No
Text #1
ID                                       : 6
Format                                   : UTF-8
Codec ID                                 : S_TEXT/UTF8
Codec ID/Info                            : UTF-8 Plain Text
Title                                    : Русские (CP Digital)
Language                                 : Russian
Default                                  : No
Forced                                   : No
Text #2
ID                                       : 7
Format                                   : UTF-8
Codec ID                                 : S_TEXT/UTF8
Codec ID/Info                            : UTF-8 Plain Text
Title                                    : русские (Тивионика)
Language                                 : Russian
Default                                  : No
Forced                                   : No
Text #3
ID                                       : 8
Format                                   : UTF-8
Codec ID                                 : S_TEXT/UTF8
Codec ID/Info                            : UTF-8 Plain Text
Title                                    : немецкие
Language                                 : German
Default                                  : No
Forced                                   : No
Text #4
ID                                       : 9
Format                                   : UTF-8
Codec ID                                 : S_TEXT/UTF8
Codec ID/Info                            : UTF-8 Plain Text
Title                                    : английские
Language                                 : English
Default                                  : No
Forced                                   : No
Menu
00:00:00.000                             : en:00:00:00.000
00:07:58.395                             : en:00:07:58.395
00:15:45.778                             : en:00:15:45.778
00:20:59.633                             : en:00:20:59.633
00:26:37.513                             : en:00:26:37.513
00:32:24.401                             : en:00:32:24.401
00:39:46.384                             : en:00:39:46.384
00:47:04.613                             : en:00:47:04.613
00:54:11.832                             : en:00:54:11.832
01:02:44.844                             : en:01:02:44.844
01:11:54.060                             : en:01:11:54.060
01:19:49.410                             : en:01:19:49.410

x264

x264 [info]: frame I:960   Avg QP:18.04  size:153583
x264 [info]: frame P:26247 Avg QP:20.68  size: 79787
x264 [info]: frame B:100736 Avg QP:22.55  size: 47198
[Профиль] [ЛС]

Создавать темы 06-Авг-2015 22:25 (спустя 24 дня)

Топик был перенесен из форума Фильмы до 2014 года в форум Фильмы (HD Rips | 720p, 1080p)
sergej644
 
Показать сообщения:    

Текущее время: Сегодня 02:11

Часовой пояс: GMT



Вы не можете начинать темы
Вы не можете отвечать на сообщения
Вы не можете редактировать свои сообщения
Вы не можете удалять свои сообщения
Вы не можете голосовать в опросах
Вы не можете прикреплять файлы к сообщениям
Вы не можете скачивать файлы