ДОстояния РЕспублики. Григорий Лепс (2015) SATRip

 
Автор Сообщение

BOSS ®

Пол:

Стаж: 2 года 1 месяц

Сообщений: 3735

Откуда: ODESSA



Награды: 20 (Подробнее)

Top Keeper 3 (Количество: 1) За внесенный вклад в развитие сайта (Количество: 1) Top Seeder 3 (Количество: 1)
Торрент-статистика

Создавать темы 26-Сен-2015 21:13

[Цитировать]

Информация о фильме
Название: Достояния республики. Григорий Лепс
Год выхода: 2015
Жанр: Тв-Шоу, Pop
Ведущий: Юрий Николаев и Дмитрий Шепелев
О фильме:
На этот раз героем программы «ДОстояние РЕспублики» станет один из самых популярных современных российских певцов Григорий Лепс. Вместе с Лепсом его песни исполнят друзья и коллеги по сцене.
Страна: Россия
Продолжительность: ~01:30:00
Перевод: Не требуется
Файл
Кодек: XviD
Качество: SATRip
Видео: 704x448 25.00fps 1800kbps
Звук: 48000Hz stereo 192kbps

Скриншоты

MediaInfo

Общее
Полное имя : D:SteamDostoyanie.Respubliki.26.09.2015.SATRip.avi
Формат : AVI
Формат/Информация : Audio Video Interleave
Размер файла : 1,23 Гбайт
Продолжительность : 1 ч. 27 м.
Общий поток : 2001 Кбит/сек
Программа кодирования : VirtualDubMod 1.5.10.3 | www.virtualdub-fr.org || (build 2550/release)
Библиотека кодирования : VirtualDubMod build 2550/release
Видео
Идентификатор : 0
Формат : MPEG-4 Visual
Профиль формата : Advanced Simple@L5
Параметр BVOP формата : 2
Параметр QPel формата : Нет
Параметр GMC формата : Без точки перехода
Параметр матрицы формата : Default (H.263)
Идентификатор кодека : XVID
Идентификатор кодека/Подсказка : XviD
Продолжительность : 1 ч. 27 м.
Битрейт : 1799 Кбит/сек
Ширина : 704 пикселя
Высота : 448 пикселей
Соотношение сторон : 16:10
Частота кадров : 25,000 кадров/сек
Цветовое пространство : YUV
Субдискретизация насыщенности : 4:2:0
Битовая глубина : 8 бит
Тип развёртки : Прогрессивная
Метод сжатия : С потерями
Бит/(Пиксели*Кадры) : 0.228
Размер потока : 1,10 Гбайт (90%)
Библиотека кодирования : XviD 73
Аудио
Идентификатор : 1
Формат : AC-3
Формат/Информация : Audio Coding 3
Расширение режима : CM (complete main)
Параметр Endianness формата : Big
Идентификатор кодека : 2000
Продолжительность : 1 ч. 27 м.
Вид битрейта : Постоянный
Битрейт : 192 Кбит/сек
Каналы : 2 канала
Расположение каналов : Front: L R
Частота : 48,0 КГц
Метод сжатия : С потерями
Размер потока : 120 Мбайт (10%)
Выравнивание : Разделение по промежуткам
Продолжительность промежутка : 40 мс. (1,00 видеокадр)
Время предзагрузки промежутка : 500 мс.
[Профиль] [ЛС]
Кто просматривает тему:

Форум Тема Автор Размер
Отечественная Классика Достоевский Фёдор Михайлович - Братья Карамазовы (2007) MP3 sergej644 1.42 GB
Отечественная Классика Достоевский Фёдор Михайлович - Записки из мертвого дома [Борис Плотников, 2014 г., 128 kbps, MP3] sergej644 789 MB
Фильмы (HD Rips | 720p, 1080p) Достоинство / The Timber (2015) BDRip 720p | L ODESSA 3.49 GB
Фильмы 2015 года Достоинство / The Timber (2015) HDRip | L достали все 1.37 GB
Фильмы 2015 года Достоинство / The Timber (2015) HDRip | L1 BOSS 1.37 GB
Фильмы 2015 года Достоинство / The Timber (Энтони О`Брайэн / Anthony O\'Brien) [2015, США, Драма, приключения, вестерн, HDRip] VO (datynet) TorrentFilm 1.37 GB
Фильмы 2010 года Как достойно встретить смерть / A Beginner\'s Guide to Endings (Джонатан Собол / Jonathan Sobol) [2010, США, Канада, комедийная драма, DVDRip] VO (Петр Титов) + Original Eng TorrentFilm 1.39 GB
Отечественная Классика Михаил Салтыков-Щедрин, Федор Достоевский, Николай Лесков, Николай Позняков, и др. - Чудеса Рождества [Николай Козий, 2013] Magnat 496 MB
Показать сообщения:    

Текущее время: Сегодня 08:11

Часовой пояс: GMT



Вы не можете начинать темы
Вы не можете отвечать на сообщения
Вы не можете редактировать свои сообщения
Вы не можете удалять свои сообщения
Вы не можете голосовать в опросах
Вы не можете прикреплять файлы к сообщениям
Вы не можете скачивать файлы