Достань меня, если сможешь / Reach Me (Джон Херцфелд / John Herzfeld) [2014, США, драма, WEB-DLRip] VO (PashaUp)

 
Автор Сообщение

TorrentFilm ®

Пол:

Стаж: 2 года

Сообщений: 7741



Награды: Нет

Торрент-статистика

Создавать темы 21-Дек-2014 02:15

[Цитировать]

Достань меня, если сможешь / Reach Me
Страна: США
Жанр: драма
Год выпуска: 2014
Продолжительность: 01:32:13
Перевод: Одноголосый закадровый PashaUp
Cубтитры: нет
Режиссер: Джон Херцфелд / John Herzfeld
В ролях: Лорен Кохэн, Том Беренджер, Сильвестр Сталлоне, Дэнни Айелл, Дэнни Трехо, Кира Седжвик, Томас Джейн, Кевин Коннолли, Том Сайзмор, Нелли, Омари Хардвик, Дэвид О’Хара, Келси Грэммер, Терри Крюс
Описание: Загадочный автор, давно ушедший в подполье, написал великолепную мотивирующую книгу "Достань меня, если сможешь", в одночасье ставшую хитом продаж. Когда-то давно он был футбольным тренером, помогая своим воспитанникам духовно настраиваться на победу.
Теперь он самостоятельно издал одну из популярнейших книг под псевдонимом Тэдди Рэймонд, став занимательной загадкой для общества. О нём нет никакой информации, а его произведение "Достань меня, если сможешь" продолжает завоёвывать мир. Судьбы прочитавших меняются кардинальным образом.
Полицейский-маньяк, помешанный на вестернах, понимает, что ему необходимо остановиться, но только книга способна ему помочь. Бывшая заключённая, недавно освободившаяся после нескольких лет за поджёг увидела в этой литературе смысл жизни.
Журналист с редактором, надеявшиеся раскрыть загадку успешного писателя, также найдут нечто новое. А ведь это лишь малая толика тех, чьи судьбы изменятся благодаря "Достань меня, если сможешь".
Сэмпл: http://multi-up.com/1016953
Качество видео: WEB-DLRip
Формат видео: AVI
Видео: 720x304 (2.37:1), 23.976 fps, XviD MPEG-4 ~1789 kbps avg, 0.34 bit/pixel
Аудио: 48 kHz, AC3 Dolby Digital, 3/2 (L,C,R,l,r) + LFE ch, ~448 kbps

MediaInfo

Формат : AVI
Формат/Информация : Audio Video Interleave
Размер файла : 1,46 Гбайт
Продолжительность : 1 ч. 32 м.
Общий поток : 2272 Кбит/сек
Программа кодирования : VirtualDubMod 1.5.10.3 | www.virtualdub-fr.org || (build 2550/release)
Библиотека кодирования : VirtualDubMod build 2550/release
Видео
Идентификатор : 0
Формат : MPEG-4 Visual
Профиль формата : Advanced Simple@L5
Параметр BVOP формата : 1
Параметр QPel формата : Нет
Параметр GMC формата : Без точки перехода
Параметр матрицы формата : Выборочная
Идентификатор кодека : XVID
Идентификатор кодека/Подсказка : XviD
Продолжительность : 1 ч. 32 м.
Битрейт : 1879 Кбит/сек
Ширина : 720 пикселей
Высота : 304 пикселя
Соотношение сторон : 2,35:1
Частота кадров : 23,976 кадра/сек
Цветовое пространство : YUV
Субдискретизация насыщенности : 4:2:0
Битовая глубина : 8 бит
Тип развёртки : Прогрессивная
Метод сжатия : С потерями
Бит/(Пиксели*Кадры) : 0.358
Размер потока : 1,21 Гбайт (83%)
Библиотека кодирования : XviD 73
Аудио
Идентификатор : 1
Формат : AC-3
Формат/Информация : Audio Coding 3
Расширение режима : CM (complete main)
Параметр Endianness формата : Big
Идентификатор кодека : 2000
Продолжительность : 1 ч. 32 м.
Вид битрейта : Постоянный
Битрейт : 384 Кбит/сек
Каналы : 6 каналов
Расположение каналов : Front: L C R, Side: L R, LFE
Частота : 48,0 КГц
Битовая глубина : 16 бит
Метод сжатия : С потерями
Размер потока : 253 Мбайт (17%)
Выравнивание : Разделение по промежуткам
Продолжительность промежутка : 42 мс. (1,00 видеокадр)
Время предзагрузки промежутка : 500 мс.

Скриншоты

[Профиль] [ЛС]
Кто просматривает тему:

Форум Тема Автор Размер
Компьютерная литература (Программирование) MacDonald M. / Мак-Дональд М. - Access 2007. The Missing Manual / Access 2007. Недостающее руководство [2007, PDF, RUS] TorrentFilm 29 MB
Документальные HD Битва за доставку (сезон 6) / Shipping Wars [2014, Познавательный, History Channel HD, DVB] TorrentFilm 5.16 GB
Фильмы 2009 года Доставь мне удовольствие! / Fais-moi plaisir! (Эмманюэль Муре / Emmanuel Mouret) [2009, Франция, комедия, DVDRip] VO (Михаил Темнов) + Original Fre TorrentFilm 1.72 GB
Фильмы (HD Rips | 720p, 1080p) Достань меня, если сможешь / Reach Me (2014) BDRip 1080p | L2 sergej644 11.02 GB
Фильмы 2014 года Достань меня, если сможешь / Reach Me (2014) HDRip от Scarabey | L2 sergej644 1.45 GB
Фильмы 2014 года Достань меня, если сможешь / Reach Me (Джон Херцфелд / John Herzfeld) [2014, США, драма, WEB-DLRip] VO (PashaUp) TorrentFilm 745 MB
Фильмы 2014 года Достань меня, если сможешь / Reach Me (Джон Херцфелд) [2014 г., драма, WEB-DLRip] BOSS 1.45 GB
Фильмы 2011 года Достать коротышку / Get Shorty (1995) HDRip | D BOSS 1.45 GB
Показать сообщения:    

Текущее время: Сегодня 07:13

Часовой пояс: GMT



Вы не можете начинать темы
Вы не можете отвечать на сообщения
Вы не можете редактировать свои сообщения
Вы не можете удалять свои сообщения
Вы не можете голосовать в опросах
Вы не можете прикреплять файлы к сообщениям
Вы не можете скачивать файлы