Доставь мне удовольствие! / Fais-moi plaisir! (Эмманюэль Муре / Emmanuel Mouret) [2009, Франция, комедия, DVDRip] VO (Михаил Темнов) + Original Fre

 
Автор Сообщение

TorrentFilm ®

Пол:

Стаж: 2 года

Сообщений: 7741



Награды: Нет

Торрент-статистика

Создавать темы 21-Янв-2016 00:08

[Цитировать]

Доставь мне удовольствие! / Fais-moi plaisir!
Страна: Франция
Жанр: комедия
Год выпуска: 2009
Продолжительность: 01:24:16
Перевод: Одноголосый закадровый - Михаил Темнов
Cубтитры: нет
Оригинальная аудиодорожка: французский

Режиссер: Эмманюэль Муре / Emmanuel Mouret
В ролях: Эмманюэль Муре, Жюдит Годреш, Дебора Франсуа, Фридерик Бель, Жак Вебер, Дэни Брийян, Микаэль Гудин, Фридерик Эпо, Фридерик Нидермайер, Карин Вентало
Описание: Ариан очень несчастлива: она считает, что её возлюбленный Жан-Жак увлёкся другой женщиной. Пытаясь спасти отношения, она просит Жан-Жака завести интрижку с соперницей, считая, что это лучший способ избавления от грёз. Жан-Жак отправляется к женщине, с которой едва знаком, ещё не подозревая, что она - дочь Президента Республики...
Качество видео: DVDRip
Формат видео: AVI
Видео: 688x368 (1.87:1), 25 fps, XviD build 73 ~2015 kbps avg, 0.32 bit/pixel
Аудио: 48 kHz, AC3 Dolby Digital, 3/2 (L,C,R,l,r) + LFE ch, ~448 kbps - одноголосый
Аудио: 48 kHz, AC3 Dolby Digital, 3/2 (L,C,R,l,r) + LFE ch, ~448 kbps - оригинал (отдельным файлом)

MediaInfo

Общее
Полное имя : H:\Fais-moi.plaisir!.2009.dvdrip_[1.46].avi
Формат : AVI
Формат/Информация : Audio Video Interleave
Размер файла : 1,46 Гбайт
Продолжительность : 1 ч. 24 м.
Общий поток : 2474 Кбит/сек
Программа кодирования : VirtualDubMod 1.5.10.3 | www.virtualdub-fr.org || (build 2550/release)
Библиотека кодирования : VirtualDubMod build 2550/release
Видео
Идентификатор : 0
Формат : MPEG-4 Visual
Профиль формата : Advanced Simple@L5
Параметр BVOP формата : 1
Параметр QPel формата : Нет
Параметр GMC формата : Без точки перехода
Параметр матрицы формата : Выборочная
Идентификатор кодека : XVID
Идентификатор кодека/Подсказка : XviD
Продолжительность : 1 ч. 24 м.
Битрейт : 2016 Кбит/сек
Ширина : 688 пикселей
Высота : 368 пикселей
Соотношение сторон : 1,85:1
Частота кадров : 25,000 кадров/сек
Цветовое пространство : YUV
Субдискретизация насыщенности : 4:2:0
Битовая глубина : 8 бит
Тип развёртки : Прогрессивная
Метод сжатия : С потерями
Бит/(Пиксели*Кадры) : 0.318
Размер потока : 1,19 Гбайт (81%)
Библиотека кодирования : XviD 73
Аудио
Идентификатор : 1
Формат : AC-3
Формат/Информация : Audio Coding 3
Расширение режима : CM (complete main)
Параметр Endianness формата : Big
Идентификатор кодека : 2000
Продолжительность : 1 ч. 24 м.
Вид битрейта : Постоянный
Битрейт : 448 Кбит/сек
Каналы : 6 каналов
Расположение каналов : Front: L C R, Side: L R, LFE
Частота : 48,0 КГц
Битовая глубина : 16 бит
Метод сжатия : С потерями
Размер потока : 270 Мбайт (18%)
Выравнивание : Разделение по промежуткам
Продолжительность промежутка : 40 мс. (1,00 видеокадр)
Время предзагрузки промежутка : 500 мс.
Релиз группы:
--
[Профиль] [ЛС]

Создавать темы 12-Июн-2016 07:56 (спустя 4 месяца 22 дня)

Топик был перенесен из форума Фильмы 2011 года в форум Фильмы 2009 года
Russian Mafia
 
Показать сообщения:    

Текущее время: Сегодня 16:36

Часовой пояс: GMT



Вы не можете начинать темы
Вы не можете отвечать на сообщения
Вы не можете редактировать свои сообщения
Вы не можете удалять свои сообщения
Вы не можете голосовать в опросах
Вы не можете прикреплять файлы к сообщениям
Вы не можете скачивать файлы