Доспехи Бога 3: Миссия Зодиак / Chinese Zodiac (2012) BDRip 1080p | D

 
Автор Сообщение

sergej644 ®

Пол:

Стаж: 4 года 11 месяцев

Сообщений: 6043

Откуда: Soviet Union



Награды: Нет

Торрент-статистика

Создавать темы 31-Окт-2014 15:31

[Цитировать]

--Доспехи Бога 3: Миссия Зодиак / Chinese Zodiac (2012)
Информация о фильме
Название: Доспехи Бога 3: Миссия Зодиак
Оригинальное название: Chinese Zodiac
Год выхода: 2012
Страна: Гонконг, Китай
Выпущено: Emperor Classic Films, Emperor Dragon Movies, Emperor Motion Pictures
Жанр: Боевик, комедия, приключения
Продолжительность: 02:02:56
Перевод: Профессиональный (Дублированный) [Лицензия]
Режиссер: Джеки Чан
В ролях: Джеки Чан, Квон Сан У, Ляо Фань, Синтхун Яо, Чжан Ланьсинь, Лаура Вейссбеккер, Оливер Плэтт, Эмили Гуйо, Кэйтлин Дешель, Кенни Джи-Сюжет фильма
Группа в обновленном составе направляется на тропический остров, где среди обломков севшего на мель корабля спрятаны еще две статуэтки. В тропиках Джею Си и его друзьям противостоит банда разношерстных пиратов. Только благодаря безупречным боевым навыкам героя удается одержать верх. Вернувшись домой, Джей Си с удивлением узнает, что таинственный заказчик уже собрал шесть других статуэток. Ничего удивительного в том, что Ястреб собирается преподать ему урок хороших манер.
-Файл
Кодек:
Формат: Matroska
Качество: BDRip 1080p Источник: 2D Blu-ray [TW]
Видео: AVC 1920x800 (2.40:1), 24.000 fps, 7950 kbps, 0.216 Bit/Pixel
Аудио 1: AC-3 (5.1) 16 bit, 48 kHz, 640 kbps (Rus)
Аудио 2: AC-3 (5.1) 16 bit, 48 kHz, 448 kbps (Chi)
Субтитры: UTF-8 Русские, Английские
Размер: 1/3 BD
Меню: Сохранены оригинальные чаптеры Blu-ray--

MI

General
Unique ID : 191419172835116129640624455722544250456 (0x9001FDDF59913C3BB44E7F0A24D5BE58)
Format : Matroska
Format version : Version 2
File size : 7.76 GiB
Duration : 2h 2mn
Overall bit rate : 9 036 Kbps
Movie name : Доспехи Бога 3 (2012) BDRip (1080p)
Encoded date : UTC 2013-03-13 12:30:59
Writing application : mkvmerge v5.8.0 ('No Sleep / Pillow') built on Sep 2 2012 15:37:04
Writing library : libebml v1.2.3 + libmatroska v1.3.0
Video
ID : 1
Format : AVC
Format/Info : Advanced Video Codec
Format profile : High@L4.1
Format settings, CABAC : Yes
Format settings, ReFrames : 5 frames
Codec ID : V_MPEG4/ISO/AVC
Duration : 2h 2mn
Bit rate : 7 950 Kbps
Width : 1 920 pixels
Height : 800 pixels
Display aspect ratio : 2.40:1
Frame rate mode : Constant
Frame rate : 24.000 fps
Color space : YUV
Chroma subsampling : 4:2:0
Bit depth : 8 bits
Scan type : Progressive
Bits/(Pixel*Frame) : 0.216
Stream size : 6.67 GiB (86%)
Title : Release by Alex260680
Writing library : x264 core 130 r2273 b3065e6
Encoding settings : cabac=1 / ref=5 / deblock=1:-3:-3 / analyse=0x3:0x113 / me=umh / subme=11 / psy=1 / psy_rd=1.00:0.10 / mixed_ref=1 / me_range=32 / chroma_me=1 / trellis=2 / 8x8dct=1 / cqm=0 / deadzone=21,11 / fast_pskip=0 / chroma_qp_offset=-3 / threads=12 / lookahead_threads=1 / sliced_threads=0 / nr=0 / decimate=0 / interlaced=0 / bluray_compat=0 / constrained_intra=0 / bframes=5 / b_pyramid=2 / b_adapt=2 / b_bias=0 / direct=3 / weightb=1 / open_gop=0 / weightp=2 / keyint=240 / keyint_min=24 / scenecut=40 / intra_refresh=0 / rc=2pass / mbtree=0 / bitrate=7950 / ratetol=1.0 / qcomp=0.60 / qpmin=0 / qpmax=69 / qpstep=4 / cplxblur=20.0 / qblur=0.5 / ip_ratio=1.40 / pb_ratio=1.30 / aq=1:0.70
Language : Chinese
Default : Yes
Forced : No
Audio #1
ID : 2
Format : AC-3
Format/Info : Audio Coding 3
Mode extension : CM (complete main)
Format settings, Endianness : Big
Codec ID : A_AC3
Duration : 2h 2mn
Bit rate mode : Constant
Bit rate : 640 Kbps
Channel(s) : 6 channels
Channel positions : Front: L C R, Side: L R, LFE
Sampling rate : 48.0 KHz
Bit depth : 16 bits
Compression mode : Lossy
Stream size : 563 MiB (7%)
Title : DUB
Language : Russian
Default : Yes
Forced : No
Audio #2
ID : 3
Format : AC-3
Format/Info : Audio Coding 3
Mode extension : CM (complete main)
Format settings, Endianness : Big
Codec ID : A_AC3
Duration : 2h 2mn
Bit rate mode : Constant
Bit rate : 448 Kbps
Channel(s) : 6 channels
Channel positions : Front: L C R, Side: L R, LFE
Sampling rate : 48.0 KHz
Bit depth : 16 bits
Compression mode : Lossy
Stream size : 394 MiB (5%)
Title : Original
Language : Chinese
Default : No
Forced : No
Text #1
ID : 4
Format : UTF-8
Codec ID : S_TEXT/UTF8
Codec ID/Info : UTF-8 Plain Text
Language : Russian
Default : No
Forced : No
Text #2
ID : 5
Format : UTF-8
Codec ID : S_TEXT/UTF8
Codec ID/Info : UTF-8 Plain Text
Language : English
Default : No
Forced : No
Menu
00:00:00.000 : en:Chapter1
00:11:22.833 : en:Chapter2
00:18:11.208 : en:Chapter3
00:25:10.125 : en:Chapter4
00:33:34.333 : en:Chapter5
00:44:06.917 : en:Chapter6
00:55:10.125 : en:Chapter7
01:09:59.042 : en:Chapter8
01:16:50.583 : en:Chapter9
01:25:28.875 : en:Chapter10
01:39:16.500 : en:Chapter11
01:50:33.208 : en:Chapter12

Дополнительно

Используемое программное обеспечение: "Eac3to", "XviD4PSP", "Sonic Foundry Soft Encode", "SupRip", "MKVToolNix"
-Скриншоты
-
[Профиль] [ЛС]
Кто просматривает тему:

Форум Тема Автор Размер
Фильмы (HD Rips | 720p, 1080p) Доспехи Бога / Armour Of God (1986) BDRip 1080p | P, P2, A sergej644 9.08 GB
Фильмы (HD Rips | 720p, 1080p) Доспехи бога 2: Операция Кондор / The Armour Of God 2: Operation Condor (1991) BDRip 1080p | P, P2, A sergej644 10.59 GB
Фильмы (HD Rips | 720p, 1080p) Доспехи Бога 3: Миссия Зодиак / Chinese Zodiac (2012) BDRip 720p | D sergej644 4.37 GB
Фильмы 2012 года Доспехи Бога 3: Миссия Зодиак / Chinese Zodiac (2012) BDRip-AVC от potroks | D | Лицензия Russian Mafia 2.44 GB
Зарубежные Доспехи Бога 3: Миссия Зодиак / Chinese Zodiac (Джеки Чан / Jackie Chan) [2012, Гонконг, Китай, Боевик, комедия, приключения, Blu-ray 1080p] BD3D TorrentFilm 35.17 GB
Зарубежные Доспехи Бога 3: Миссия Зодиак в 3Д / Chinese Zodiac 3D (Джеки Чан / Jackie Chan) [2012, Боевик, Комедия, Приключения, BDrip-AVC] Half OverUnder / Вертикальная анаморфная стереопара TorrentFilm 17.29 GB
Зарубежные Доспехи Бога 3: Миссия Зодиак в 3Д / Chinese Zodiac 3D (Джеки Чан / Jackie Chan) [2012, боевик, комедия, приключения, Blu-ray disc 1080p] BD3D RUS TorrentFilm 35.17 GB
Трейлеры Призрак в доспехах / Ghost in the Shell (2017) HDRip 1080p | Трейлер достали все 554 MB
Показать сообщения:    

Текущее время: Сегодня 22:26

Часовой пояс: GMT



Вы не можете начинать темы
Вы не можете отвечать на сообщения
Вы не можете редактировать свои сообщения
Вы не можете удалять свои сообщения
Вы не можете голосовать в опросах
Вы не можете прикреплять файлы к сообщениям
Вы не можете скачивать файлы