Доспехи бога 2: Операция Кондор / The Armour Of God 2: Operation Condor (1991) BDRip 1080p | P, P2, A

 
Автор Сообщение

sergej644 ®

Пол:

Стаж: 4 года 11 месяцев

Сообщений: 6043

Откуда: Soviet Union



Награды: Нет

Торрент-статистика

Создавать темы 17-Фев-2015 18:36

[Цитировать]

Информация о фильме
Название: Доспехи бога 2: Операция Кондор
Оригинальное название: The Armour Of God 2: Operation Condor
Год выхода: 1991
Жанр: Боевик, комедия, приключения
Режиссер: Джеки Чан
В ролях: Джеки Чан, Ева Кобо, Шоко Икеда, Дэниэл Минтц, Альдо Самбрелл, Кен Гудман, Лин Персивал, Брюс Фонтейн
О фильме: Продолжение фильма «Доспехи Бога». Фильм номинировался в 1992 году на Hong Kong Film Awards (гонконгский кинофестиваль) в категории «Лучшая постановка боевых сцен».
Азиатский Ястреб возвращается! На этот раз ему предстоит новая работа, из-за которой наш герой опять приезжает в Мадрид. Некий загадочный миллионер предлагает Ястребу заняться поисками нацистских сокровищ, которые спрятаны в глубине африканской пустыни. Он передает ключ к сокровищнице, соглашается финансировать экспедицию и отправляет с Ястребом попутчицу — специалиста по Африке Аду.
Во-время, своего пребывания в Мадриде, Ястреб знакомится с немецкой девушкой Эльзой, которая разыскивает своего деда, пропавшего во время войны в Африке. После ряда приключений Эльза тоже присоединяется к экспедиции.
При падении с высоты Джеки Чан зацепился ногой за железную цепь, в результате чего получил растяжение связок и вывих тазобедренного сустава. После падения на землю с этой цепи повредил грудину, сломал несколько ребер.
Кадры неудачного трюка по традиции вошли в финальную часть кинофильма и транслируются вместе с титрами.
Гонконгская версия фильма имеет хронометраж 106 минут, американская — 92 минуты.

Страна: Гонконг
Продолжительность: 01:46:29
Перевод: Профессиональный (многоголосый закадровый) x 2
Перевод: Профессиональный (двухголосый закадровый)
Перевод: Авторский (одноголосый закадровый) x 7
Файл
Кодек: H264
Качество: BDRip 1080p
Видео: MPEG4 Video (H264), 1920x808, 23.976fps, 12.0 Mbps
Аудио #1: Русский: Dolby AC3, 48000 Hz, 2ch, 192 kbps - Многоголосый - НТВ
Аудио #2: Русский: Dolby AC3, 48000 Hz, 2ch, 192 kbps - Многоголосый - Союз
Аудио #3: Русский: Dolby AC3, 48000 Hz, 6ch, 448 kbps - Двухголосый - Гланц и Королёва
Аудио #4: Русский: Dolby AC3, 48000 Hz, 6ch, 448 kbps - Одноголосый - Гаврилов
Аудио #5: Русский: Dolby AC3, 48000 Hz, 2ch, 192 kbps - Одноголосый - Володарский
Аудио #6: Русский: Dolby AC3, 48000 Hz, 2ch, 192 kbps - Одноголосый - Стилан Видео (Сонькин)
Аудио #7: Русский: Dolby AC3, 48000 Hz, 2ch, 192 kbps - Одноголосый - Дольский
Аудио #8: Русский: Dolby AC3, 48000 Hz, 2ch, 192 kbps - Одноголосый - Кашкин
Аудио #9: Русский: Dolby AC3, 48000 Hz, 2ch, 192 kbps - Одноголосый
Аудио #10: Русский: Dolby AC3, 48000 Hz, 2ch, 192 kbps - Одноголосый
Сэмпл

MediaInfo:

General
Unique ID : 206138511283479367450475334901292936164 (0x9B14D549CABDAB95BDA52DD7E1112BE4)
Complete name : F:Torrent 21991.Armour.of.God.2.renta23.mkv
Format : Matroska
Format version : Version 4 / Version 2
File size : 10.6 GiB
Duration : 1h 46mn
Overall bit rate : 14.2 Mbps
Movie name : renta23
Encoded date : UTC 2015-02-04 16:21:51
Writing application : mkvmerge v7.1.0 ('Good Love') 32bit built on Jul 27 2014 12:59:18
Writing library : libebml v1.3.0 + libmatroska v1.4.1
DURATION : 01:46:29.120000000
NUMBER_OF_FRAMES : 199660
NUMBER_OF_BYTES : 153338880
_STATISTICS_WRITING_APP : mkvmerge v7.1.0 ('Good Love') 32bit built on Jul 27 2014 12:59:18
_STATISTICS_WRITING_DATE_UTC : 2015-02-04 16:21:51
_STATISTICS_TAGS : BPS DURATION NUMBER_OF_FRAMES NUMBER_OF_BYTES
Video
ID : 1
Format : AVC
Format/Info : Advanced Video Codec
Format profile : High@L4.1
Format settings, CABAC : Yes
Format settings, ReFrames : 3 frames
Codec ID : V_MPEG4/ISO/AVC
Duration : 1h 46mn
Bit rate : 12.0 Mbps
Width : 1 920 pixels
Height : 808 pixels
Display aspect ratio : 2.40:1
Frame rate mode : Constant
Frame rate : 23.976 fps
Color space : YUV
Chroma subsampling : 4:2:0
Bit depth : 8 bits
Scan type : Progressive
Bits/(Pixel*Frame) : 0.323
Stream size : 8.72 GiB (82%)
Title : Доспехи бога 2 Операция Кондор 1991 / renta23
Writing library : x264 core 125 r2208 d9d2288
Encoding settings : cabac=1 / ref=4 / deblock=1:-1:-1 / analyse=0x3:0x133 / me=umh / subme=11 / psy=1 / psy_rd=1.25:0.30 / mixed_ref=1 / me_range=24 / chroma_me=1 / trellis=2 / 8x8dct=1 / cqm=0 / deadzone=21,11 / fast_pskip=0 / chroma_qp_offset=-4 / threads=12 / lookahead_threads=2 / sliced_threads=0 / nr=0 / decimate=1 / interlaced=0 / bluray_compat=0 / constrained_intra=0 / bframes=12 / b_pyramid=1 / b_adapt=2 / b_bias=0 / direct=3 / weightb=1 / open_gop=0 / weightp=2 / keyint=250 / keyint_min=23 / scenecut=40 / intra_refresh=0 / rc_lookahead=50 / rc=2pass / mbtree=1 / bitrate=12000 / ratetol=1.0 / qcomp=0.60 / qpmin=0 / qpmax=69 / qpstep=4 / cplxblur=20.0 / qblur=0.5 / ip_ratio=1.40 / aq=1:0.90
Language : Chinese
Default : Yes
Forced : No
Audio #1
ID : 2
Format : AC-3
Format/Info : Audio Coding 3
Mode extension : CM (complete main)
Format settings, Endianness : Big
Codec ID : A_AC3
Duration : 1h 46mn
Bit rate mode : Constant
Bit rate : 192 Kbps
Channel(s) : 2 channels
Channel positions : Front: L R
Sampling rate : 48.0 KHz
Bit depth : 16 bits
Compression mode : Lossy
Stream size : 146 MiB (1%)
Title : Многоголосый, НТВ
Language : Russian
Default : Yes
Forced : No
Audio #2
ID : 3
Format : AC-3
Format/Info : Audio Coding 3
Mode extension : CM (complete main)
Format settings, Endianness : Big
Codec ID : A_AC3
Duration : 1h 46mn
Bit rate mode : Constant
Bit rate : 192 Kbps
Channel(s) : 2 channels
Channel positions : Front: L R
Sampling rate : 48.0 KHz
Bit depth : 16 bits
Compression mode : Lossy
Stream size : 146 MiB (1%)
Title : Многоголосый, Союз
Language : Russian
Default : No
Forced : No
Audio #3
ID : 4
Format : AC-3
Format/Info : Audio Coding 3
Mode extension : CM (complete main)
Format settings, Endianness : Big
Codec ID : A_AC3
Duration : 1h 46mn
Bit rate mode : Constant
Bit rate : 448 Kbps
Channel(s) : 6 channels
Channel positions : Front: L C R, Side: L R, LFE
Sampling rate : 48.0 KHz
Bit depth : 16 bits
Compression mode : Lossy
Stream size : 341 MiB (3%)
Title : Двухголосый, Гланц и Королёва
Language : Russian
Default : No
Forced : No
Audio #4
ID : 5
Format : AC-3
Format/Info : Audio Coding 3
Mode extension : CM (complete main)
Format settings, Endianness : Big
Codec ID : A_AC3
Duration : 1h 46mn
Bit rate mode : Constant
Bit rate : 448 Kbps
Channel(s) : 6 channels
Channel positions : Front: L C R, Side: L R, LFE
Sampling rate : 48.0 KHz
Bit depth : 16 bits
Compression mode : Lossy
Stream size : 341 MiB (3%)
Title : Одноголосый, Гаврилов
Language : Russian
Default : No
Forced : No
Audio #5
ID : 6
Format : AC-3
Format/Info : Audio Coding 3
Mode extension : CM (complete main)
Format settings, Endianness : Big
Codec ID : A_AC3
Duration : 1h 46mn
Bit rate mode : Constant
Bit rate : 192 Kbps
Channel(s) : 2 channels
Channel positions : Front: L R
Sampling rate : 48.0 KHz
Bit depth : 16 bits
Compression mode : Lossy
Stream size : 146 MiB (1%)
Title : Одноголосый, Стилан Видео (Сонькин)
Language : Russian
Default : No
Forced : No
Audio #6
ID : 7
Format : AC-3
Format/Info : Audio Coding 3
Mode extension : CM (complete main)
Format settings, Endianness : Big
Codec ID : A_AC3
Duration : 1h 46mn
Bit rate mode : Constant
Bit rate : 192 Kbps
Channel(s) : 2 channels
Channel positions : Front: L R
Sampling rate : 48.0 KHz
Bit depth : 16 bits
Compression mode : Lossy
Stream size : 146 MiB (1%)
Title : Одноголосый, Дольский
Language : Russian
Default : No
Forced : No
Audio #7
ID : 8
Format : AC-3
Format/Info : Audio Coding 3
Mode extension : CM (complete main)
Format settings, Endianness : Big
Codec ID : A_AC3
Duration : 1h 46mn
Bit rate mode : Constant
Bit rate : 192 Kbps
Channel(s) : 2 channels
Channel positions : Front: L R
Sampling rate : 48.0 KHz
Bit depth : 16 bits
Compression mode : Lossy
Stream size : 146 MiB (1%)
Title : Одноголосый, Кашкин
Language : Russian
Default : No
Forced : No
Audio #8
ID : 9
Format : AC-3
Format/Info : Audio Coding 3
Mode extension : CM (complete main)
Format settings, Endianness : Big
Codec ID : A_AC3
Duration : 1h 46mn
Bit rate mode : Constant
Bit rate : 192 Kbps
Channel(s) : 2 channels
Channel positions : Front: L R
Sampling rate : 48.0 KHz
Bit depth : 16 bits
Compression mode : Lossy
Stream size : 146 MiB (1%)
Title : Одноголосый
Language : Russian
Default : No
Forced : No
Audio #9
ID : 10
Format : AC-3
Format/Info : Audio Coding 3
Mode extension : CM (complete main)
Format settings, Endianness : Big
Codec ID : A_AC3
Duration : 1h 46mn
Bit rate mode : Constant
Bit rate : 192 Kbps
Channel(s) : 2 channels
Channel positions : Front: L R
Sampling rate : 48.0 KHz
Bit depth : 16 bits
Compression mode : Lossy
Stream size : 146 MiB (1%)
Title : Одноголосый
Language : Russian
Default : No
Forced : No
Menu
00:00:00.000 : zh:Chapter 01
00:07:03.000 : zh:Chapter 02
00:17:23.000 : zh:Chapter 03
00:25:47.000 : zh:Chapter 04
00:33:49.000 : zh:Chapter 05
00:37:33.000 : zh:Chapter 06
00:45:39.000 : zh:Chapter 07
00:51:15.000 : zh:Chapter 08
00:57:27.000 : zh:Chapter 09
01:07:26.000 : zh:Chapter 10
01:15:29.000 : zh:Chapter 11
01:19:55.000 : zh:Chapter 12
01:23:51.000 : zh:Chapter 13
01:29:47.000 : zh:Chapter 14
01:43:23.000 : zh:Chapter 15

Скриншоты

[Профиль] [ЛС]
Кто просматривает тему:

Форум Тема Автор Размер
Фильмы (HD Rips | 720p, 1080p) Доспехи Бога / Armour Of God (1986) BDRip 1080p | P, P2, A sergej644 9.08 GB
Фильмы (HD Rips | 720p, 1080p) Доспехи Бога 3: Миссия Зодиак / Chinese Zodiac (2012) BDRip 1080p | D sergej644 7.76 GB
Фильмы (HD Rips | 720p, 1080p) Доспехи Бога 3: Миссия Зодиак / Chinese Zodiac (2012) BDRip 720p | D sergej644 4.37 GB
Фильмы 2012 года Доспехи Бога 3: Миссия Зодиак / Chinese Zodiac (2012) BDRip-AVC от potroks | D | Лицензия Russian Mafia 2.44 GB
Зарубежные Доспехи Бога 3: Миссия Зодиак / Chinese Zodiac (Джеки Чан / Jackie Chan) [2012, Гонконг, Китай, Боевик, комедия, приключения, Blu-ray 1080p] BD3D TorrentFilm 35.17 GB
Зарубежные Доспехи Бога 3: Миссия Зодиак в 3Д / Chinese Zodiac 3D (Джеки Чан / Jackie Chan) [2012, Боевик, Комедия, Приключения, BDrip-AVC] Half OverUnder / Вертикальная анаморфная стереопара TorrentFilm 17.29 GB
Зарубежные Доспехи Бога 3: Миссия Зодиак в 3Д / Chinese Zodiac 3D (Джеки Чан / Jackie Chan) [2012, боевик, комедия, приключения, Blu-ray disc 1080p] BD3D RUS TorrentFilm 35.17 GB
Трейлеры Призрак в доспехах / Ghost in the Shell (2017) HDRip 1080p | Трейлер достали все 554 MB
Показать сообщения:    

Текущее время: Сегодня 22:30

Часовой пояс: GMT



Вы не можете начинать темы
Вы не можете отвечать на сообщения
Вы не можете редактировать свои сообщения
Вы не можете удалять свои сообщения
Вы не можете голосовать в опросах
Вы не можете прикреплять файлы к сообщениям
Вы не можете скачивать файлы