Доспехи Бога / Armour Of God (1986) BDRip 1080p | P, P2, A

 
Автор Сообщение

sergej644 ®

Пол:

Стаж: 4 года 11 месяцев

Сообщений: 6046

Откуда: Soviet Union



Награды: Нет

Торрент-статистика

Создавать темы 16-Фев-2015 18:40

[Цитировать]

Информация о фильме:
Название: Доспехи Бога
Оригинальное название: Armour Of God
Год выхода: 1986
Жанр: Боевик, комедия, приключения
Режиссер: Джеки Чан, Эрик Цан
В ролях: Джеки Чан, Алан Там, Розамунд Кван, Лола Форнер, Божидар Смилянич, Кен Бойл, Джон Ладальски, Роберт О’Брайэн, Борис Грегорич, Марсия Чишолм
О фильме: «Азиатский ястреб» — так назвали героя Джеки в Европе. Когда он похитил в Африке ритуальный меч, то не предполагал, что это начало опасных приключений. Оказывается, что меч — часть древних доспехов Бога, и если их уничтожить, то в мире будут править силы Ужаса и Зла.
Силы Зла, которые укрылись в неприступном монастыре, узнают, что у Джеки есть доступ к остальным доспехам. Они похищают девушку, которую любит Ястреб, и требуют выкупа.
Понимая, что одной ловкостью ему не справиться с полчищами бандитов, Джеки добровольно становится человеком — бомбой. Но этот козырь он приберег на самый крайний случай…
Самую опасную травму Джеки Чан получил на съёмках именно этого фильма. В сцене, где герой Джеки прыгает со стены замка на дерево, всё получилось немного не по задумке и эпизод решили переснять. Во время повторного исполнения трюка ветка на дереве отломалась и Джеки упал с 5-метровой высоты, ударившись головой об камень. Он получил тяжелейшую травму: осколок кости черепа вошёл в мозг, вызвав кровоизлияние. Чан был госпитализирован, а съёмки — остановлены. Джеки пробыл в больнице около месяца, где отсутствующую часть черепа ему заменили пластиковой заглушкой. Когда он вновь приступил к съёмкам, выяснилось, что на голове остался заметный шрам. Чтобы зрители его не заметили, исполнительный продюсер картины Реймонд Чоу посоветовал ему отрастить волосы. Чан так и поступил. Именно этим и объясняется тот факт, что в самом начале фильма у Джеки короткая стрижка, а уже потом, когда он катается по траве длинные волосы. После полученной травмы Джеки Чан также плохо слышит правым ухом.
Существует 2 версии фильма: гонконгская от «Golden Harvest» и американская от «Dimension Films». Гонконгская — 97 минут, американская — 88 минут.
В американской версии было удалено и изменено несколько сцен, чтобы не замедлять темп фильма, а также сменена заглавная и конечная песни.
Hong Kong Film Awards (1988)
Номинация: лучшая постановка боевых сцен

Выпущено: Гонконг, Югославия
Продолжительность: 01:28:33
Перевод: Профессиональный (многоголосый закадровый) x 4
Перевод: Профессиональный (двухголосый закадровый)
Перевод: Авторский (одноголосый закадровый) x 4
Оригинальная звуковая дорожка: Английский
Файл:
Кодек: H264
Качество: BDRip 1080p
Видео: MPEG4 Video (H264), 1920x1080, 23.976fps, 12.0 Mbps
Аудио #1: Русский: Dolby AC3, 48000 Hz, 2ch, 192 kbps - Многоголосый - НТВ
Аудио #2: Русский: Dolby AC3, 48000 Hz, 2ch, 192 kbps - Многоголосый - Рен ТВ
Аудио #3: Русский: Dolby AC3, 48000 Hz, 2ch, 192 kbps - Многоголосый - РТР
Аудио #4: Русский: Dolby AC3, 48000 Hz, 2ch, 192 kbps - Многоголосый - Союз
Аудио #5: Русский: Dolby AC3, 48000 Hz, 2ch, 448 kbps - Двухголосый - Гланц и Королёва
Аудио #6: Русский: Dolby AC3, 48000 Hz, 2ch, 192 kbps - Одноголосый - Гаврилов (с кассеты)
Аудио #7: Русский: Dolby AC3, 48000 Hz, 6ch, 448 kbps - Одноголосый - Гаврилов
Аудио #8: Русский: Dolby AC3, 48000 Hz, 2ch, 192 kbps - Одноголосый - Володарский
Аудио #9: Русский: Dolby AC3, 48000 Hz, 2ch, 192 kbps - Одноголосый - Стилан Видео (Сонькин)
Аудио #10: Английский: Dolby AC3, 48000 Hz, 2ch, 448 kbps
Сэмпл

MediaInfo:

General
Unique ID : 201756599302205573150153511354746463370 (0x97C8E858F526297591C13142465EE48A)
Complete name : F:Torrent 21986.Armour.of.God.renta23.mkv
Format : Matroska
Format version : Version 4 / Version 2
File size : 9.08 GiB
Duration : 1h 28mn
Overall bit rate : 14.7 Mbps
Encoded date : UTC 2015-02-03 14:52:17
Writing application : mkvmerge v7.1.0 ('Good Love') 32bit built on Jul 27 2014 12:59:18
Writing library : libebml v1.3.0 + libmatroska v1.4.1
DURATION : 01:28:30.688000000
NUMBER_OF_FRAMES : 165959
NUMBER_OF_BYTES : 297398528
_STATISTICS_WRITING_APP : mkvmerge v7.1.0 ('Good Love') 32bit built on Jul 27 2014 12:59:18
_STATISTICS_WRITING_DATE_UTC : 2015-02-03 14:52:17
_STATISTICS_TAGS : BPS DURATION NUMBER_OF_FRAMES NUMBER_OF_BYTES
Video
ID : 1
Format : AVC
Format/Info : Advanced Video Codec
Format profile : High@L4.1
Format settings, CABAC : Yes
Format settings, ReFrames : 3 frames
Codec ID : V_MPEG4/ISO/AVC
Duration : 1h 28mn
Bit rate : 12.0 Mbps
Width : 1 920 pixels
Height : 1 080 pixels
Display aspect ratio : 16:9
Frame rate mode : Constant
Frame rate : 23.976 fps
Color space : YUV
Chroma subsampling : 4:2:0
Bit depth : 8 bits
Scan type : Progressive
Bits/(Pixel*Frame) : 0.241
Stream size : 7.24 GiB (80%)
Title : Доспехи Бога 1986 / renta23
Writing library : x264 core 125 r2208 d9d2288
Encoding settings : cabac=1 / ref=4 / deblock=1:-1:-1 / analyse=0x3:0x133 / me=umh / subme=11 / psy=1 / psy_rd=1.25:0.30 / mixed_ref=1 / me_range=24 / chroma_me=1 / trellis=2 / 8x8dct=1 / cqm=0 / deadzone=21,11 / fast_pskip=0 / chroma_qp_offset=-4 / threads=12 / lookahead_threads=2 / sliced_threads=0 / nr=0 / decimate=1 / interlaced=0 / bluray_compat=0 / constrained_intra=0 / bframes=12 / b_pyramid=1 / b_adapt=2 / b_bias=0 / direct=3 / weightb=1 / open_gop=0 / weightp=2 / keyint=250 / keyint_min=23 / scenecut=40 / intra_refresh=0 / rc_lookahead=50 / rc=2pass / mbtree=1 / bitrate=12000 / ratetol=1.0 / qcomp=0.60 / qpmin=0 / qpmax=69 / qpstep=4 / cplxblur=20.0 / qblur=0.5 / ip_ratio=1.40 / aq=1:0.90
Language : Chinese
Default : Yes
Forced : No
Audio #1
ID : 2
Format : AC-3
Format/Info : Audio Coding 3
Mode extension : CM (complete main)
Format settings, Endianness : Big
Codec ID : A_AC3
Duration : 1h 28mn
Bit rate mode : Constant
Bit rate : 192 Kbps
Channel(s) : 2 channels
Channel positions : Front: L R
Sampling rate : 48.0 KHz
Bit depth : 16 bits
Compression mode : Lossy
Stream size : 122 MiB (1%)
Title : Многоголосый - НТВ
Language : Russian
Default : Yes
Forced : No
Audio #2
ID : 3
Format : AC-3
Format/Info : Audio Coding 3
Mode extension : CM (complete main)
Format settings, Endianness : Big
Codec ID : A_AC3
Duration : 1h 28mn
Bit rate mode : Constant
Bit rate : 192 Kbps
Channel(s) : 2 channels
Channel positions : Front: L R
Sampling rate : 48.0 KHz
Bit depth : 16 bits
Compression mode : Lossy
Stream size : 122 MiB (1%)
Title : Многоголосый - Рен ТВ
Language : Russian
Default : No
Forced : No
Audio #3
ID : 4
Format : AC-3
Format/Info : Audio Coding 3
Mode extension : CM (complete main)
Format settings, Endianness : Big
Codec ID : A_AC3
Duration : 1h 28mn
Bit rate mode : Constant
Bit rate : 192 Kbps
Channel(s) : 2 channels
Channel positions : Front: L R
Sampling rate : 48.0 KHz
Bit depth : 16 bits
Compression mode : Lossy
Stream size : 122 MiB (1%)
Title : Многоголосый - РТР
Language : Russian
Default : No
Forced : No
Audio #4
ID : 5
Format : AC-3
Format/Info : Audio Coding 3
Mode extension : CM (complete main)
Format settings, Endianness : Big
Codec ID : A_AC3
Duration : 1h 28mn
Bit rate mode : Constant
Bit rate : 192 Kbps
Channel(s) : 2 channels
Channel positions : Front: L R
Sampling rate : 48.0 KHz
Bit depth : 16 bits
Compression mode : Lossy
Stream size : 122 MiB (1%)
Title : Многоголосый - Союз
Language : Russian
Default : No
Forced : No
Audio #5
ID : 6
Format : AC-3
Format/Info : Audio Coding 3
Mode extension : CM (complete main)
Format settings, Endianness : Big
Codec ID : A_AC3
Duration : 1h 28mn
Bit rate mode : Constant
Bit rate : 448 Kbps
Channel(s) : 2 channels
Channel positions : Front: L R
Sampling rate : 48.0 KHz
Bit depth : 16 bits
Compression mode : Lossy
Stream size : 284 MiB (3%)
Title : Двухголосый - Гланц и Королёва
Language : Russian
Default : No
Forced : No
Audio #6
ID : 7
Format : AC-3
Format/Info : Audio Coding 3
Mode extension : CM (complete main)
Format settings, Endianness : Big
Codec ID : A_AC3
Duration : 1h 28mn
Bit rate mode : Constant
Bit rate : 192 Kbps
Channel(s) : 2 channels
Channel positions : Front: L R
Sampling rate : 48.0 KHz
Bit depth : 16 bits
Compression mode : Lossy
Stream size : 122 MiB (1%)
Title : Одноголосый - Гаврилов (с кассеты)
Language : Russian
Default : No
Forced : No
Audio #7
ID : 8
Format : AC-3
Format/Info : Audio Coding 3
Mode extension : CM (complete main)
Format settings, Endianness : Big
Codec ID : A_AC3
Duration : 1h 28mn
Bit rate mode : Constant
Bit rate : 448 Kbps
Channel(s) : 6 channels
Channel positions : Front: L C R, Side: L R, LFE
Sampling rate : 48.0 KHz
Bit depth : 16 bits
Compression mode : Lossy
Stream size : 284 MiB (3%)
Title : Одноголосый - Гаврилов
Language : Russian
Default : No
Forced : No
Audio #8
ID : 9
Format : AC-3
Format/Info : Audio Coding 3
Mode extension : CM (complete main)
Format settings, Endianness : Big
Codec ID : A_AC3
Duration : 1h 28mn
Bit rate mode : Constant
Bit rate : 192 Kbps
Channel(s) : 2 channels
Channel positions : Front: L R
Sampling rate : 48.0 KHz
Bit depth : 16 bits
Compression mode : Lossy
Stream size : 122 MiB (1%)
Title : Одноголосый - Володарский
Language : Russian
Default : No
Forced : No
Audio #9
ID : 10
Format : AC-3
Format/Info : Audio Coding 3
Mode extension : CM (complete main)
Format settings, Endianness : Big
Codec ID : A_AC3
Duration : 1h 28mn
Bit rate mode : Constant
Bit rate : 192 Kbps
Channel(s) : 2 channels
Channel positions : Front: L R
Sampling rate : 48.0 KHz
Bit depth : 16 bits
Compression mode : Lossy
Stream size : 122 MiB (1%)
Title : Одноголосый - Стилан Видео (Сонькин)
Language : Russian
Default : No
Forced : No
Audio #10
ID : 11
Format : AC-3
Format/Info : Audio Coding 3
Mode extension : CM (complete main)
Format settings, Endianness : Big
Codec ID : A_AC3
Duration : 1h 28mn
Bit rate mode : Constant
Bit rate : 448 Kbps
Channel(s) : 2 channels
Channel positions : Front: L R
Sampling rate : 48.0 KHz
Bit depth : 16 bits
Compression mode : Lossy
Stream size : 284 MiB (3%)
Language : English
Default : No
Forced : No
Menu
00:00:00.000 : en:00:00:00.000
00:05:04.304 : en:00:05:04.304
00:12:38.132 : en:00:12:38.132
00:16:14.974 : en:00:16:14.974
00:23:52.431 : en:00:23:52.431
00:28:11.690 : en:00:28:11.690
00:37:34.252 : en:00:37:34.252
00:41:36.411 : en:00:41:36.411
00:46:30.788 : en:00:46:30.788
00:51:32.089 : en:00:51:32.089
00:57:40.457 : en:00:57:40.457
01:03:07.784 : en:01:03:07.784
01:07:17.033 : en:01:07:17.033
01:12:38.354 : en:01:12:38.354
01:18:52.728 : en:01:18:52.728

Скриншоты


[Профиль] [ЛС]
Кто просматривает тему:

Форум Тема Автор Размер
Фильмы (HD Rips | 720p, 1080p) Доспехи бога 2: Операция Кондор / The Armour Of God 2: Operation Condor (1991) BDRip 1080p | P, P2, A sergej644 10.59 GB
Фильмы (HD Rips | 720p, 1080p) Доспехи Бога 3: Миссия Зодиак / Chinese Zodiac (2012) BDRip 1080p | D sergej644 7.76 GB
Фильмы (HD Rips | 720p, 1080p) Доспехи Бога 3: Миссия Зодиак / Chinese Zodiac (2012) BDRip 720p | D sergej644 4.37 GB
Фильмы 2012 года Доспехи Бога 3: Миссия Зодиак / Chinese Zodiac (2012) BDRip-AVC от potroks | D | Лицензия Russian Mafia 2.44 GB
Зарубежные Доспехи Бога 3: Миссия Зодиак / Chinese Zodiac (Джеки Чан / Jackie Chan) [2012, Гонконг, Китай, Боевик, комедия, приключения, Blu-ray 1080p] BD3D TorrentFilm 35.17 GB
Зарубежные Доспехи Бога 3: Миссия Зодиак в 3Д / Chinese Zodiac 3D (Джеки Чан / Jackie Chan) [2012, Боевик, Комедия, Приключения, BDrip-AVC] Half OverUnder / Вертикальная анаморфная стереопара TorrentFilm 17.29 GB
Зарубежные Доспехи Бога 3: Миссия Зодиак в 3Д / Chinese Zodiac 3D (Джеки Чан / Jackie Chan) [2012, боевик, комедия, приключения, Blu-ray disc 1080p] BD3D RUS TorrentFilm 35.17 GB
Трейлеры Призрак в доспехах / Ghost in the Shell (2017) HDRip 1080p | Трейлер достали все 554 MB
Показать сообщения:    

Текущее время: Сегодня 14:58

Часовой пояс: GMT



Вы не можете начинать темы
Вы не можете отвечать на сообщения
Вы не можете редактировать свои сообщения
Вы не можете удалять свои сообщения
Вы не можете голосовать в опросах
Вы не можете прикреплять файлы к сообщениям
Вы не можете скачивать файлы