Дорожное приключение 2 / Road Trip: Beer Pong (Стив Рэш / Steve Rash) [2009, США, комедия, HDTVRip] MVO (Paramount channel) + MVO (CTC) + Original Eng

 
Автор Сообщение

TorrentFilm ®

Пол:

Стаж: 2 года

Сообщений: 7741



Награды: Нет

Торрент-статистика

Создавать темы 05-Янв-2015 00:00

[Цитировать]

Дорожное приключение 2 / Road Trip: Beer Pong
Страна: США
Студия: Paramount Famous Productions
Жанр: комедия
Год выпуска: 2009
Продолжительность: 01:36:39
Перевод 1: Профессиональный (многоголосый закадровый) Paramount channel
Перевод 2: Профессиональный (многоголосый закадровый) CTC
Cубтитры: нет
Оригинальная аудиодорожка: английский
Режиссер: Стив Рэш / Steve Rash
В ролях: DJ Куаллс, Мэри Кобб, Рода Гриффис, Престон Джонс, Майкл Троттер, Джулианна Гуилл, Нестор Аарон Абсера, Дэниэл Ньюман, Картер Гастон, Джулия Леви-Бекен
Описание: Трое соседей по общежитию колледжа случайно попадают в автобус, перевозящий едва одетых, соблазнительных девушек-моделей на финал Национального турнира по пиво-понгу. По дороге туда они неизбежно станут участниками всевозможных приключений, включая автостоп, вооружённых до зубов красоток, группу профессионалов стриптиза, состоящую из бабушки, мамы и дочки, а также очаровательных участниц сообщества Целомудрия до брака. Со всеми этими приколами они не смогут не выиграть соревнования, но главное, получить удовольствие!
II Сэмпл II IMDB II
Доп. информация:
За исходник спасибо sv503
За дорогу СТС спасибо miha2154
Первая дорога записана с т/к Paramount channel
Качество видео: HDTVRip
Формат видео: AVI
Видео: Xvid 720x400 (16:9) 23.976fps Bit rate 2364Kbps b/p 0.342
Аудио 1: AC3 48.0 KHz 2ch. 192kbps rus mvo Paramount channel
Аудио 2: AC3 48.0 KHz 2ch. 192kbps rus mvo СТС
Аудио 3: AC3 48.0 KHz 6ch. 448kbps eng

MediaInfo

Общее
Полное имя : E:\torrent\Road.Trip.II Beer.Pong.2009.HDTVRip.avi
Формат : AVI
Формат/Информация : Audio Video Interleave
Профиль формата : OpenDML
Размер файла : 2,17 Гбайт
Продолжительность : 1 ч. 36 м.
Общий поток : 3219 Кбит/сек
Программа кодирования : VirtualDubMod 1.5.10.3 (build 2550/release)
Библиотека кодирования : VirtualDubMod build 2550/release
Видео
Идентификатор : 0
Формат : MPEG-4 Visual
Профиль формата : Advanced Simple@L5
Параметр BVOP формата : 2
Параметр QPel формата : Нет
Параметр GMC формата : Без точки перехода
Параметр матрицы формата : Default (H.263)
Идентификатор кодека : XVID
Идентификатор кодека/Подсказка : XviD
Продолжительность : 1 ч. 36 м.
Битрейт : 2364 Кбит/сек
Ширина : 720 пикселей
Высота : 400 пикселей
Соотношение сторон : 16:9
Частота кадров : 23,976 кадра/сек
Цветовое пространство : YUV
Субдискретизация насыщенности : 4:2:0
Битовая глубина : 8 бит
Тип развёртки : Прогрессивная
Метод сжатия : С потерями
Бит/(Пиксели*Кадры) : 0.342
Размер потока : 1,60 Гбайт (73%)
Библиотека кодирования : XviD 65
Аудио #1
Идентификатор : 1
Формат : AC-3
Формат/Информация : Audio Coding 3
Расширение режима : CM (complete main)
Параметр Endianness формата : Big
Идентификатор кодека : 2000
Продолжительность : 1 ч. 36 м.
Вид битрейта : Постоянный
Битрейт : 192 Кбит/сек
Каналы : 2 канала
Расположение каналов : Front: L R
Частота : 48,0 КГц
Битовая глубина : 16 бит
Метод сжатия : С потерями
Размер потока : 133 Мбайт (6%)
Выравнивание : Разделение по промежуткам
Продолжительность промежутка : 42 мс. (1,00 видеокадр)
Время предзагрузки промежутка : 500 мс.
Аудио #2
Идентификатор : 2
Формат : AC-3
Формат/Информация : Audio Coding 3
Расширение режима : CM (complete main)
Параметр Endianness формата : Big
Идентификатор кодека : 2000
Продолжительность : 1 ч. 36 м.
Вид битрейта : Постоянный
Битрейт : 192 Кбит/сек
Каналы : 2 канала
Расположение каналов : Front: L R
Частота : 48,0 КГц
Битовая глубина : 16 бит
Метод сжатия : С потерями
Размер потока : 133 Мбайт (6%)
Выравнивание : Разделение по промежуткам
Продолжительность промежутка : 42 мс. (1,00 видеокадр)
Время предзагрузки промежутка : 500 мс.
Аудио #3
Идентификатор : 3
Формат : AC-3
Формат/Информация : Audio Coding 3
Расширение режима : CM (complete main)
Параметр Endianness формата : Big
Идентификатор кодека : 2000
Продолжительность : 1 ч. 36 м.
Вид битрейта : Постоянный
Битрейт : 448 Кбит/сек
Каналы : 6 каналов
Расположение каналов : Front: L C R, Side: L R, LFE
Частота : 48,0 КГц
Битовая глубина : 16 бит
Метод сжатия : С потерями
Размер потока : 309 Мбайт (14%)
Выравнивание : Разделение по промежуткам
Продолжительность промежутка : 42 мс. (1,00 видеокадр)
Время предзагрузки промежутка : 500 мс.

Скриншот c названием фильма

Скриншоты


[Профиль] [ЛС]

Создавать темы 06-Авг-2015 22:50 (спустя 7 месяцев 1 день)

Топик был перенесен из форума Фильмы до 2014 года в форум Фильмы до 2012 года
sergej644
 

Создавать темы 12-Июн-2016 08:48 (спустя 1 год 5 месяцев)

Топик был перенесен из форума Фильмы 2011 года в форум Фильмы 2009 года
Russian Mafia
 
Показать сообщения:    

Текущее время: Сегодня 01:29

Часовой пояс: GMT



Вы не можете начинать темы
Вы не можете отвечать на сообщения
Вы не можете редактировать свои сообщения
Вы не можете удалять свои сообщения
Вы не можете голосовать в опросах
Вы не можете прикреплять файлы к сообщениям
Вы не можете скачивать файлы