Дорогуша / Darling (2015) Blu-Ray Remux 1080p | L1

 
Автор Сообщение

BOSS ®

Пол:

Стаж: 3 года

Сообщений: 7633

Откуда: ODESSA



Награды: 22 (Подробнее)

Mega Seeder 1 (Количество: 1) Top Keeper 1 (Количество: 1) Top Releaser 2 (Количество: 1)
Торрент-статистика

Создавать темы 06-Окт-2017 13:49

[Цитировать]

Производство: США, Alexander Groupe, Glass Eye Pix
Жанр: Ужасы, Триллер
Режиссер: Мики Китинг
Актеры: Лорен Эшли Картер, Шон Янг, Брайан Морвант, Ларри Фессенден, Джон Спередакос, Хелен Роджерс
Описание: Одинокая женщина сходит с ума, устроившись смотрительницей в дом с призраками.

Продолжительность: 01:16:27
Качество видео: Blu-Ray Remux (1080p)
Перевод / озвучка: Любительский, одноголосый [Хихикающий доктор]
Видео: MPEG-4 AVC, 24091 Кбит/с, 1920x1080
Аудио 1: Русский (DTS, 6 ch, 1510 Кбит/с)
Аудио 2: Английский (DTS, 6 ch, 1510 Кбит/с)
Семпл

Mediainfo:

Общее
Уникальный идентификатор : 241227488103712807038070094596262593839 (0xB57AB96A13315B26AFAE7BF6BA20052F)
Полное имя : E:MMMMDarling.2015.1080p.BluRay.REMUX.mkv
Формат : Matroska
Версия формата : Version 4 / Version 2
Размер файла : 14,5 Гбайт
Продолжительность : 1 ч. 16 м.
Режим общего битрейта : Переменный
Общий поток : 27,1 Мбит/сек
Дата кодирования : UTC 2017-10-06 11:35:10
Программа кодирования : mkvmerge v6.9.1 ('Blue Panther') 64bit built on Apr 18 2014 18:23:38
Библиотека кодирования : libebml v1.3.0 + libmatroska v1.4.1
Видео
Идентификатор : 1
Формат : AVC
Формат/Информация : Advanced Video Codec
Профиль формата : High@L4.1
Параметр CABAC формата : Да
Параметр ReFrames формата : 4 кадра
Идентификатор кодека : V_MPEG4/ISO/AVC
Продолжительность : 1 ч. 16 м.
Вид битрейта : Переменный
Битрейт : 23,6 Мбит/сек
Максимальный битрейт : 30,0 Мбит/сек
Ширина : 1920 пикселей
Высота : 1080 пикселей
Соотношение сторон : 16:9
Режим частоты кадров : Постоянный
Частота кадров : 23,976 (24000/1001) кадра/сек
Стандарт вещания : NTSC
Цветовое пространство : YUV
Субдискретизация насыщенности : 4:2:0
Битовая глубина : 8 бит
Тип развёртки : Прогрессивная
Бит/(Пиксели*Кадры) : 0.474
Размер потока : 12,6 Гбайт (87%)
Default : Да
Forced : Нет
Цветовой диапазон : Limited
Основные цвета : BT.709
Характеристики трансфера : BT.709
Коэффициенты матрицы : BT.709
Аудио #1
Идентификатор : 2
Формат : DTS
Формат/Информация : Digital Theater Systems
Режим : 16
Параметр Endianness формата : Big
Идентификатор кодека : A_DTS
Продолжительность : 1 ч. 16 м.
Вид битрейта : Постоянный
Битрейт : 1510 Кбит/сек
Каналы : 6 каналов
Расположение каналов : Front: L C R, Side: L R, LFE
Частота : 48,0 КГц
Частота кадров : 93,750 кадра/сек (512 spf)
Битовая глубина : 24 бит
Метод сжатия : С потерями
Размер потока : 826 Мбайт (6%)
Заголовок : xixidoktor
Язык : Russian
Default : Да
Forced : Нет
Аудио #2
Идентификатор : 3
Формат : DTS
Формат/Информация : Digital Theater Systems
Режим : 16
Параметр Endianness формата : Big
Идентификатор кодека : A_DTS
Продолжительность : 1 ч. 16 м.
Вид битрейта : Постоянный
Битрейт : 1510 Кбит/сек
Каналы : 6 каналов
Расположение каналов : Front: L C R, Side: L R, LFE
Частота : 48,0 КГц
Частота кадров : 93,750 кадра/сек (512 spf)
Битовая глубина : 24 бит
Метод сжатия : С потерями
Размер потока : 826 Мбайт (6%)
Заголовок : original
Язык : English
Default : Нет
Forced : Нет
Меню
00:00:00.000 : en:Chapter 1
00:04:38.403 : en:Chapter 2
00:11:24.016 : en:Chapter 3
00:18:14.760 : en:Chapter 4
00:23:46.633 : en:Chapter 5
00:30:04.761 : en:Chapter 6
00:37:34.168 : en:Chapter 7
00:44:53.524 : en:Chapter 8
00:52:48.874 : en:Chapter 9
01:00:09.606 : en:Chapter 10
01:06:23.437 : en:Chapter 11
01:13:31.115 : en:Chapter 12

Скриншоты:


[Профиль] [ЛС]
Показать сообщения:    

Текущее время: Сегодня 19:05

Часовой пояс: GMT



Вы не можете начинать темы
Вы не можете отвечать на сообщения
Вы не можете редактировать свои сообщения
Вы не можете удалять свои сообщения
Вы не можете голосовать в опросах
Вы не можете прикреплять файлы к сообщениям
Вы не можете скачивать файлы