Дорога / The Road (Джон Хиллкоут)[2009, драма, триллер, приключения, BDRip] 1080p

 
Автор Сообщение

sergej644 ®

Пол:

Стаж: 4 года 11 месяцев

Сообщений: 6043

Откуда: Soviet Union



Награды: Нет

Торрент-статистика

Создавать темы 15-Ноя-2014 21:44

[Цитировать]

Дорога / The Road«В одно мгновение мир изменился навсегда» Информация о фильме
Название: Дорога
Оригинальное название: The Road
Год выхода: 2009
Жанр: драма, триллер, приключения
Режиссер: Джон Хиллкоут
В ролях: Вигго Мортенсен, Коди Смит-МакФи, Роберт Дювалл, Гай Пирс, Молли Паркер, Майкл К. Уильямс, Гаррет Диллахант, Шарлиз Терон, Боб Дженнингс, Аньес Херрманн
О фильме:
На Землю обрушились чудовищные катаклизмы, цивилизация уничтожена, как и практически вся жизнь на планете. Оставшееся человечество разделилось на каннибалов и их добычу. По дороге, покрытой пеплом, идут отец с сыном. Они хотят добраться до теплых мест, чтобы выжить…

Рейтинг RЛицам до 17 лет обязательно присутствие взрослого
Ограничение по возрасту: 18+
бюджет: $25 000 000
сборы в США: $8 117 000
сборы в мире: + $15 818 463 = $23 935 463 сборы
сборы в России: $10 585
Страна: США
Студия: 2929 Productions, Chockstone Pictures, Dimension Films, Nick Wechsler Productions
Продолжительность: 01:51:20
Перевод: Профессиональный (многоголосый, закадровый) + оригинал
Релиз от:
Файл
Качество: BDRip 1080p
Кодек: AVC
Видео: 1920x816 (2.35:1); 9691 Kbps; 23,976 fps; 0,258 bpp
Аудио №1: Russian; AC3; 448 Kbps; CBR; 6 ch
Аудио №2: English; AC3; 448 Kbps; CBR; 6 ch
Субтитры: Русские, Английские

Знаете ли вы, что...

• Фильм снят по мотивам романа Кормака Маккарти «Дорога» (The Road, 2006), принесшего в 2007 году Пулитцеровскую премию своему автору.
• Первоначально на роль отца мальчика планировалось взять Брэда Питта, но актер отклонил предложение. Роль досталась Вигго Мортенсену.
• Большинство сцен ленты отсняли в Пенсильвании. Также съемки велись в Луизиане и Орегоне.
• Шарлиз Терон, сыгравшая роль жены главного героя, в интервью призналась, что согласилась сниматься в фильме во многом благодаря тому, что ей очень понравилась книга Кормака МакКарти.
• Этот фильм очень вдохновил Naughty Dog на разработку игры The Last of Us.
• Режиссёр настоял на удалении из ленты эпизода, где людоеды зажаривают на вертеле обезглавленное тело ребёнка.

MI:

Общее
Уникальный идентификатор : 212257128194480397411597040299463168434 (0x9FAF3C649800D0F4A8C56A64E1C451B2)
Полное имя : C:UsersDimazDesktopDoroga.2009.BDRip.1080p.mkv
Формат : Matroska
Версия формата : Version 4 / Version 2
Размер файла : 8,26 Гбайт
Продолжительность : 1 ч. 51 м.
Общий поток : 10,6 Мбит/сек
Название фильма : The Road 2009 by Torrentirk.ru
Дата кодирования : UTC 2013-09-13 07:54:01
Программа кодирования : mkvmerge v6.3.0 ('You can't stop me!') built on Jul 19 2013 16:27:38
Библиотека кодирования : libebml v1.3.0 + libmatroska v1.4.1
Видео
Идентификатор : 1
Формат : AVC
Формат/Информация : Advanced Video Codec
Профиль формата : High@L4.1
Параметр CABAC формата : Да
Параметр ReFrames формата : 5 кадров
Идентификатор кодека : V_MPEG4/ISO/AVC
Продолжительность : 1 ч. 51 м.
Битрейт : 9691 Кбит/сек
Ширина : 1920 пикселей
Высота : 816 пикселей
Соотношение сторон : 2,35:1
Режим частоты кадров : Постоянный
Частота кадров : 23,976 кадра/сек
Цветовое пространство : YUV
Субдискретизация насыщенности : 4:2:0
Битовая глубина : 8 бит
Тип развёртки : Прогрессивная
Бит/(Пиксели*Кадры) : 0.258
Размер потока : 7,40 Гбайт (90%)
Заголовок : The Road 2009
Библиотека кодирования : x264 core 88 r1471 1144615
Настройки программы : cabac=1 / ref=5 / deblock=1:-3:-3 / analyse=0x3:0x113 / me=umh / subme=10 / psy=1 / psy_rd=1.05:0.10 / mixed_ref=1 / me_range=48 / chroma_me=1 / trellis=2 / 8x8dct=1 / cqm=2 / deadzone=21,11 / fast_pskip=0 / chroma_qp_offset=-2 / threads=12 / sliced_threads=0 / nr=0 / decimate=1 / mbaff=0 / constrained_intra=0 / bframes=3 / b_pyramid=2 / b_adapt=2 / b_bias=0 / direct=3 / wpredb=1 / wpredp=2 / keyint=250 / keyint_min=25 / scenecut=40 / intra_refresh=0 / rc_lookahead=50 / rc=2pass / mbtree=1 / bitrate=9691 / ratetol=2.0 / qcomp=0.70 / qpmin=10 / qpmax=51 / qpstep=4 / cplxblur=20.0 / qblur=0.5 / vbv_maxrate=50000 / vbv_bufsize=50000 / ip_ratio=1.40 / aq=1:1.00
Язык : English
Default : Да
Forced : Нет
Аудио #1
Идентификатор : 2
Формат : AC-3
Формат/Информация : Audio Coding 3
Расширение режима : CM (complete main)
Параметр Endianness формата : Big
Идентификатор кодека : A_AC3
Продолжительность : 1 ч. 51 м.
Вид битрейта : Постоянный
Битрейт : 448 Кбит/сек
Каналы : 6 каналов
Расположение каналов : Front: L C R, Side: L R, LFE
Частота : 48,0 КГц
Битовая глубина : 16 бит
Метод сжатия : С потерями
Размер потока : 357 Мбайт (4%)
Заголовок : MVO
Язык : Russian
Default : Да
Forced : Нет
Аудио #2
Идентификатор : 3
Формат : AC-3
Формат/Информация : Audio Coding 3
Расширение режима : CM (complete main)
Параметр Endianness формата : Big
Идентификатор кодека : A_AC3
Продолжительность : 1 ч. 51 м.
Вид битрейта : Постоянный
Битрейт : 448 Кбит/сек
Каналы : 6 каналов
Расположение каналов : Front: L C R, Side: L R, LFE
Частота : 48,0 КГц
Битовая глубина : 16 бит
Метод сжатия : С потерями
Размер потока : 357 Мбайт (4%)
Заголовок : Original
Язык : English
Default : Нет
Forced : Нет
Текст #1
Идентификатор : 4
Формат : UTF-8
Идентификатор кодека : S_TEXT/UTF8
Идентификатор кодека/Информация : UTF-8 Plain Text
Язык : Russian
Default : Нет
Forced : Нет
Текст #2
Идентификатор : 5
Формат : UTF-8
Идентификатор кодека : S_TEXT/UTF8
Идентификатор кодека/Информация : UTF-8 Plain Text
Язык : English
Default : Нет
Forced : Нет
Меню
00:00:00.000 : en:Chapter 1
00:07:44.630 : en:Chapter 2
00:11:50.126 : en:Chapter 3
00:17:30.466 : en:Chapter 4
00:23:58.854 : en:Chapter 5
00:33:25.420 : en:Chapter 6
00:37:30.748 : en:Chapter 7
00:44:31.627 : en:Chapter 8
00:51:59.324 : en:Chapter 9
00:59:17.345 : en:Chapter 10
01:06:22.186 : en:Chapter 11
01:11:18.065 : en:Chapter 12
01:20:02.214 : en:Chapter 13
01:25:44.556 : en:Chapter 14
01:30:52.989 : en:Chapter 15
01:36:24.278 : en:Chapter 16

Скриншоты:




--
[Профиль] [ЛС]
Показать сообщения:    

Текущее время: Сегодня 18:32

Часовой пояс: GMT



Вы не можете начинать темы
Вы не можете отвечать на сообщения
Вы не можете редактировать свои сообщения
Вы не можете удалять свои сообщения
Вы не можете голосовать в опросах
Вы не можете прикреплять файлы к сообщениям
Вы не можете скачивать файлы