Дорога из приюта / Pound Pups to Dog Stars (1-8 серии из 10) (Николай Гриффин / Nicola Griffin) [2013, Документальный, пристройство бездомных собак, TVRip]

 
Автор Сообщение

reversefile ®

Пол:

Стаж: 4 года 5 месяцев

Сообщений: 842

Откуда: ReverseFile.org



Награды: Нет

Торрент-статистика

Создавать темы 11-Авг-2014 06:20

[Цитировать]

Дорога из приюта / Pound Pups to Dog Stars
Дата/Год выпуска: 2013-2014
Страна: Новая Зеландия
Жанр: Документальный, пристройство бездомных собак
Продолжительность: 10 х ~00:21:40
Перевод: Студийный (одноголосый закадровый)
Доп. инфо о переводе: студия ARC-TV, озвучил Александр Гаврилин
Русские субтитры: нет
Режиссер: Николай Гриффин / Nicola Griffin
Ведущий: Марк Ветте
Телеканал: Анимал Планет
Описание: В этой передаче показано, как после прохождения курса коррекции поведения бездомные собаки превращаются в воспитанных и уравновешенных питомцев, готовых к новой и счастливой жизни. Каждый год в Новой Зеландии сдают в приюты или просто выбрасывают на улицу тысячи животных. Они страдают от жестокости, болезней и голода, а в результате — различные проблемы эмоционального и поведенческого характера, из-за которых очень сложно подобрать им новый дом. Участниками проекта "приёмный дом" становились те собаки, которых уже готовы были усыпить. Марк Ветте и его специалисты по поведению животных доказали, что даже самая невзрачная дворняга может стать звездой телевидения.
05.08.2014. добавил серии 9-10
Доп. информация: от 12 лет
Сэмпл: http://www.sendspace.com/file/fc29hm
качество: TVRip
формат: AVI
Видео: XviD, 720 х 400 (16:9), ~1500 Кбит/сек, 25,0 кадров/сек, 0.208 Бит/(Пиксели*Кадры)
Аудио: MP3, 160 Кбит/сек, 48,0 КГц, 2 канала

Список выпусков/серий

1серия: о немецкой овчарке Кайзере
2серия: о метисе лабрадора Чопере
3серия: о метисе золотистого ретривера и колли Билли
4серия: о шотландской овчарке Мосс
5серия: о стаффордширском бультерьере Джули
6серия: о чи-хуа-хуа Пинат
7серия: о джек-рассел терьере Пиппи
8серия: о стафорширдском бультерьере Рики с повреждённым глазом и выбитыми зубами (выпущен в 2014г)
9серия: о бородатом колли Ральфи (выпущен в 2014г)
10серия: о метисе овчарки Далласе (выпущен в 2014г)

Количество серий

в анонсе на телеканале "Анимал планет" было заявлено 10 серий, но показаны только 8 серий, а объявленные в программе 9 и 10 серии оказались повтором ранее показанных. В августе показали 9-10 серии.

MediaInfo

ОбщееПолное имя : C:\фильмы\02 возможно для раздачи\дорога из приюта\дорога из приюта (серии 1-8)\дорога из приюта 1 серия.aviФормат : AVIФормат/Информация : Audio Video InterleaveРазмер файла : 260 МбайтПродолжительность : 21 м.Общий поток : 1668 Кбит/сек
ВидеоИдентификатор : 0Формат : MPEG-4 VisualПрофиль формата : Advanced Simple@L4Параметр BVOP формата : НетПараметр QPel формата : НетПараметр GMC формата : Без точки переходаПараметр матрицы формата : Default (H.263)Идентификатор кодека : XVIDИдентификатор кодека/Подсказка : XviDПродолжительность : 21 м.Битрейт : 1498 Кбит/секШирина : 720 пикселейВысота : 400 пикселейСоотношение сторон : 16:9Частота кадров : 25,000 кадров/секЦветовое пространство : YUVСубдискретизация насыщенности : 4:2:0Битовая глубина : 8 битТип развёртки : ПрогрессивнаяМетод сжатия : С потерямиБит/(Пиксели*Кадры) : 0.208Размер потока : 233 Мбайт (90%)Библиотека кодирования : Lavc53.42.0
АудиоИдентификатор : 1Формат : MPEG AudioВерсия формата : Version 1Профиль формата : Layer 3Идентификатор кодека : 55Идентификатор кодека/Подсказка : MP3Продолжительность : 21 м.Вид битрейта : ПостоянныйБитрейт : 160 Кбит/секКаналы : 2 каналаЧастота : 48,0 КГцМетод сжатия : С потерямиРазмер потока : 24,9 Мбайт (10%)Выравнивание : Соединение по промежуткамПродолжительность промежутка : 40 мс. (1,00 видеокадр)
ОбщееПолное имя : C:\фильмы\02 возможно для раздачи\дорога из приюта\дорога из приюта (серии 1-8)\дорога из приюта 2 серия.aviФормат : AVIФормат/Информация : Audio Video InterleaveРазмер файла : 260 МбайтПродолжительность : 21 м.Общий поток : 1659 Кбит/сек
ВидеоИдентификатор : 0Формат : MPEG-4 VisualПрофиль формата : Advanced Simple@L4Параметр BVOP формата : НетПараметр QPel формата : НетПараметр GMC формата : Без точки переходаПараметр матрицы формата : Default (H.263)Идентификатор кодека : XVIDИдентификатор кодека/Подсказка : XviDПродолжительность : 21 м.Битрейт : 1489 Кбит/секШирина : 720 пикселейВысота : 400 пикселейСоотношение сторон : 16:9Частота кадров : 25,000 кадров/секЦветовое пространство : YUVСубдискретизация насыщенности : 4:2:0Битовая глубина : 8 битТип развёртки : ПрогрессивнаяМетод сжатия : С потерямиБит/(Пиксели*Кадры) : 0.207Размер потока : 233 Мбайт (90%)Библиотека кодирования : Lavc53.42.0
АудиоИдентификатор : 1Формат : MPEG AudioВерсия формата : Version 1Профиль формата : Layer 3Идентификатор кодека : 55Идентификатор кодека/Подсказка : MP3Продолжительность : 21 м.Продолжительность оригинала : 21 м.Вид битрейта : ПостоянныйБитрейт : 160 Кбит/секКаналы : 2 каналаЧастота : 48,0 КГцМетод сжатия : С потерямиРазмер потока : 25,1 Мбайт (10%)Выравнивание : Соединение по промежуткамПродолжительность промежутка : 40 мс. (1,00 видеокадр)
ОбщееПолное имя : C:\фильмы\02 возможно для раздачи\дорога из приюта\дорога из приюта (серии 1-8)\дорога из приюта 3 серия.aviФормат : AVIФормат/Информация : Audio Video InterleaveРазмер файла : 254 МбайтПродолжительность : 21 м.Общий поток : 1654 Кбит/сек
ВидеоИдентификатор : 0Формат : MPEG-4 VisualПрофиль формата : Advanced Simple@L4Параметр BVOP формата : НетПараметр QPel формата : НетПараметр GMC формата : Без точки переходаПараметр матрицы формата : Default (H.263)Идентификатор кодека : XVIDИдентификатор кодека/Подсказка : XviDПродолжительность : 21 м.Битрейт : 1484 Кбит/секШирина : 720 пикселейВысота : 400 пикселейСоотношение сторон : 16:9Частота кадров : 25,000 кадров/секЦветовое пространство : YUVСубдискретизация насыщенности : 4:2:0Битовая глубина : 8 битТип развёртки : ПрогрессивнаяМетод сжатия : С потерямиБит/(Пиксели*Кадры) : 0.206Размер потока : 228 Мбайт (90%)Библиотека кодирования : Lavc53.42.0
АудиоИдентификатор : 1Формат : MPEG AudioВерсия формата : Version 1Профиль формата : Layer 3Идентификатор кодека : 55Идентификатор кодека/Подсказка : MP3Продолжительность : 21 м.Продолжительность оригинала : 21 м.Вид битрейта : ПостоянныйБитрейт : 160 Кбит/секКаналы : 2 каналаЧастота : 48,0 КГцМетод сжатия : С потерямиРазмер потока : 24,6 Мбайт (10%)Выравнивание : Соединение по промежуткамПродолжительность промежутка : 40 мс. (1,00 видеокадр)
ОбщееПолное имя : C:\фильмы\02 возможно для раздачи\дорога из приюта\дорога из приюта (серии 1-8)\дорога из приюта 4 серия.aviФормат : AVIФормат/Информация : Audio Video InterleaveРазмер файла : 256 МбайтПродолжительность : 21 м.Общий поток : 1657 Кбит/сек
ВидеоИдентификатор : 0Формат : MPEG-4 VisualПрофиль формата : Advanced Simple@L4Параметр BVOP формата : НетПараметр QPel формата : НетПараметр GMC формата : Без точки переходаПараметр матрицы формата : Default (H.263)Идентификатор кодека : XVIDИдентификатор кодека/Подсказка : XviDПродолжительность : 21 м.Битрейт : 1487 Кбит/секШирина : 720 пикселейВысота : 400 пикселейСоотношение сторон : 16:9Частота кадров : 25,000 кадров/секЦветовое пространство : YUVСубдискретизация насыщенности : 4:2:0Битовая глубина : 8 битТип развёртки : ПрогрессивнаяМетод сжатия : С потерямиБит/(Пиксели*Кадры) : 0.206Размер потока : 230 Мбайт (90%)Библиотека кодирования : Lavc53.42.0
АудиоИдентификатор : 1Формат : MPEG AudioВерсия формата : Version 1Профиль формата : Layer 3Идентификатор кодека : 55Идентификатор кодека/Подсказка : MP3Продолжительность : 21 м.Продолжительность оригинала : 21 м.Вид битрейта : ПостоянныйБитрейт : 160 Кбит/секКаналы : 2 каналаЧастота : 48,0 КГцМетод сжатия : С потерямиРазмер потока : 24,8 Мбайт (10%)Выравнивание : Соединение по промежуткамПродолжительность промежутка : 40 мс. (1,00 видеокадр)Библиотека кодирования : LAME
ОбщееПолное имя : C:\фильмы\02 возможно для раздачи\дорога из приюта\дорога из приюта (серии 1-8)\дорога из приюта 5 серия.aviФормат : AVIФормат/Информация : Audio Video InterleaveРазмер файла : 259 МбайтПродолжительность : 21 м.Общий поток : 1656 Кбит/сек
ВидеоИдентификатор : 0Формат : MPEG-4 VisualПрофиль формата : Advanced Simple@L4Параметр BVOP формата : НетПараметр QPel формата : НетПараметр GMC формата : Без точки переходаПараметр матрицы формата : Default (H.263)Идентификатор кодека : XVIDИдентификатор кодека/Подсказка : XviDПродолжительность : 21 м.Битрейт : 1486 Кбит/секШирина : 720 пикселейВысота : 400 пикселейСоотношение сторон : 16:9Частота кадров : 25,000 кадров/секЦветовое пространство : YUVСубдискретизация насыщенности : 4:2:0Битовая глубина : 8 битТип развёртки : ПрогрессивнаяМетод сжатия : С потерямиБит/(Пиксели*Кадры) : 0.206Размер потока : 232 Мбайт (90%)Библиотека кодирования : Lavc53.42.0
АудиоИдентификатор : 1Формат : MPEG AudioВерсия формата : Version 1Профиль формата : Layer 3Идентификатор кодека : 55Идентификатор кодека/Подсказка : MP3Продолжительность : 21 м.Продолжительность оригинала : 21 м.Вид битрейта : ПостоянныйБитрейт : 160 Кбит/секКаналы : 2 каналаЧастота : 48,0 КГцМетод сжатия : С потерямиРазмер потока : 25,0 Мбайт (10%)Выравнивание : Соединение по промежуткамПродолжительность промежутка : 40 мс. (1,00 видеокадр)
ОбщееПолное имя : C:\фильмы\02 возможно для раздачи\дорога из приюта\дорога из приюта (серии 1-8)\дорога из приюта 6 серия.aviФормат : AVIФормат/Информация : Audio Video InterleaveРазмер файла : 259 МбайтПродолжительность : 21 м.Общий поток : 1654 Кбит/сек
ВидеоИдентификатор : 0Формат : MPEG-4 VisualПрофиль формата : Advanced Simple@L4Параметр BVOP формата : НетПараметр QPel формата : НетПараметр GMC формата : Без точки переходаПараметр матрицы формата : Default (H.263)Идентификатор кодека : XVIDИдентификатор кодека/Подсказка : XviDПродолжительность : 21 м.Битрейт : 1484 Кбит/секШирина : 720 пикселейВысота : 400 пикселейСоотношение сторон : 16:9Частота кадров : 25,000 кадров/секЦветовое пространство : YUVСубдискретизация насыщенности : 4:2:0Битовая глубина : 8 битТип развёртки : ПрогрессивнаяМетод сжатия : С потерямиБит/(Пиксели*Кадры) : 0.206Размер потока : 232 Мбайт (90%)Библиотека кодирования : Lavc53.42.0
АудиоИдентификатор : 1Формат : MPEG AudioВерсия формата : Version 1Профиль формата : Layer 3Идентификатор кодека : 55Идентификатор кодека/Подсказка : MP3Продолжительность : 21 м.Продолжительность оригинала : 21 м.Вид битрейта : ПостоянныйБитрейт : 160 Кбит/секКаналы : 2 каналаЧастота : 48,0 КГцМетод сжатия : С потерямиРазмер потока : 25,1 Мбайт (10%)Выравнивание : Соединение по промежуткамПродолжительность промежутка : 40 мс. (1,00 видеокадр)
ОбщееПолное имя : C:\фильмы\02 возможно для раздачи\дорога из приюта\дорога из приюта (серии 1-8)\дорога из приюта 7 серия.aviФормат : AVIФормат/Информация : Audio Video InterleaveРазмер файла : 256 МбайтПродолжительность : 21 м.Общий поток : 1651 Кбит/сек
ВидеоИдентификатор : 0Формат : MPEG-4 VisualПрофиль формата : Advanced Simple@L4Параметр BVOP формата : НетПараметр QPel формата : НетПараметр GMC формата : Без точки переходаПараметр матрицы формата : Default (H.263)Идентификатор кодека : XVIDИдентификатор кодека/Подсказка : XviDПродолжительность : 21 м.Битрейт : 1482 Кбит/секШирина : 720 пикселейВысота : 400 пикселейСоотношение сторон : 16:9Частота кадров : 25,000 кадров/секЦветовое пространство : YUVСубдискретизация насыщенности : 4:2:0Битовая глубина : 8 битТип развёртки : ПрогрессивнаяМетод сжатия : С потерямиБит/(Пиксели*Кадры) : 0.206Размер потока : 229 Мбайт (90%)Библиотека кодирования : Lavc53.42.0
АудиоИдентификатор : 1Формат : MPEG AudioВерсия формата : Version 1Профиль формата : Layer 3Идентификатор кодека : 55Идентификатор кодека/Подсказка : MP3Продолжительность : 21 м.Вид битрейта : ПостоянныйБитрейт : 160 Кбит/секКаналы : 2 каналаЧастота : 48,0 КГцМетод сжатия : С потерямиРазмер потока : 24,8 Мбайт (10%)Выравнивание : Соединение по промежуткамПродолжительность промежутка : 40 мс. (1,00 видеокадр)
ОбщееПолное имя : C:\фильмы\02 возможно для раздачи\дорога из приюта\дорога из приюта (серии 1-8)\дорога из приюта 8 серия.aviФормат : AVIФормат/Информация : Audio Video InterleaveРазмер файла : 249 МбайтПродолжительность : 21 м.Общий поток : 1650 Кбит/сек
ВидеоИдентификатор : 0Формат : MPEG-4 VisualПрофиль формата : Advanced Simple@L4Параметр BVOP формата : НетПараметр QPel формата : НетПараметр GMC формата : Без точки переходаПараметр матрицы формата : Default (H.263)Идентификатор кодека : XVIDИдентификатор кодека/Подсказка : XviDПродолжительность : 21 м.Битрейт : 1481 Кбит/секШирина : 720 пикселейВысота : 400 пикселейСоотношение сторон : 16:9Частота кадров : 25,000 кадров/секЦветовое пространство : YUVСубдискретизация насыщенности : 4:2:0Битовая глубина : 8 битТип развёртки : ПрогрессивнаяМетод сжатия : С потерямиБит/(Пиксели*Кадры) : 0.206Размер потока : 224 Мбайт (90%)Библиотека кодирования : Lavc53.42.0
АудиоИдентификатор : 1Формат : MPEG AudioВерсия формата : Version 1Профиль формата : Layer 3Идентификатор кодека : 55Идентификатор кодека/Подсказка : MP3Продолжительность : 21 м.Продолжительность оригинала : 21 м.Вид битрейта : ПостоянныйБитрейт : 160 Кбит/секКаналы : 2 каналаЧастота : 48,0 КГцМетод сжатия : С потерямиРазмер потока : 24,2 Мбайт (10%)Выравнивание : Соединение по промежуткамПродолжительность промежутка : 40 мс. (1,00 видеокадр)
ОбщееПолное имя : C:\фильмы\02 возможно для раздачи\дорога из приюта\дорога из приюта (серии 1-10)\дорога из приюта 09 серия.aviФормат : AVIФормат/Информация : Audio Video InterleaveРазмер файла : 259 МбайтПродолжительность : 21 м.Общий поток : 1671 Кбит/сек
ВидеоИдентификатор : 0Формат : MPEG-4 VisualПрофиль формата : Advanced Simple@L4Параметр BVOP формата : НетПараметр QPel формата : НетПараметр GMC формата : Без точки переходаПараметр матрицы формата : Default (H.263)Идентификатор кодека : XVIDИдентификатор кодека/Подсказка : XviDПродолжительность : 21 м.Битрейт : 1498 Кбит/секШирина : 720 пикселейВысота : 400 пикселейСоотношение сторон : 16:9Частота кадров : 25,000 кадров/секЦветовое пространство : YUVСубдискретизация насыщенности : 4:2:0Битовая глубина : 8 битТип развёртки : ПрогрессивнаяМетод сжатия : С потерямиБит/(Пиксели*Кадры) : 0.208Размер потока : 232 Мбайт (90%)
АудиоИдентификатор : 1Формат : MPEG AudioВерсия формата : Version 1Профиль формата : Layer 3Идентификатор кодека : 55Идентификатор кодека/Подсказка : MP3Продолжительность : 21 м.Вид битрейта : ПостоянныйБитрейт : 160 Кбит/секКаналы : 2 каналаЧастота : 48,0 КГцМетод сжатия : С потерямиРазмер потока : 24,8 Мбайт (10%)Выравнивание : Разделение по промежуткамПродолжительность промежутка : 24 мс. (0,60 видеокадр)
ОбщееПолное имя : C:\фильмы\02 возможно для раздачи\дорога из приюта\дорога из приюта (серии 1-10)\дорога из приюта 10 серия.aviФормат : AVIФормат/Информация : Audio Video InterleaveРазмер файла : 263 МбайтПродолжительность : 22 м.Общий поток : 1667 Кбит/сек
ВидеоИдентификатор : 0Формат : MPEG-4 VisualПрофиль формата : Advanced Simple@L4Параметр BVOP формата : НетПараметр QPel формата : НетПараметр GMC формата : Без точки переходаПараметр матрицы формата : Default (H.263)Идентификатор кодека : XVIDИдентификатор кодека/Подсказка : XviDПродолжительность : 22 м.Битрейт : 1498 Кбит/секШирина : 720 пикселейВысота : 400 пикселейСоотношение сторон : 16:9Частота кадров : 25,000 кадров/секЦветовое пространство : YUVСубдискретизация насыщенности : 4:2:0Битовая глубина : 8 битТип развёртки : ПрогрессивнаяМетод сжатия : С потерямиБит/(Пиксели*Кадры) : 0.208Размер потока : 236 Мбайт (90%)
АудиоИдентификатор : 1Формат : MPEG AudioВерсия формата : Version 1Профиль формата : Layer 3Идентификатор кодека : 55Идентификатор кодека/Подсказка : MP3Продолжительность : 22 м.Продолжительность оригинала : 22 м.Вид битрейта : ПостоянныйБитрейт : 160 Кбит/секКаналы : 2 каналаЧастота : 48,0 КГцМетод сжатия : С потерямиРазмер потока : 25,2 Мбайт (10%)Выравнивание : Соединение по промежуткамПродолжительность промежутка : 40 мс. (1,00 видеокадр)

Скриншот названия фильма

источник рипа

телепередача
[Профиль] [ЛС]
Показать сообщения:    

Текущее время: Сегодня 18:42

Часовой пояс: GMT



Вы не можете начинать темы
Вы не можете отвечать на сообщения
Вы не можете редактировать свои сообщения
Вы не можете удалять свои сообщения
Вы не можете голосовать в опросах
Вы не можете прикреплять файлы к сообщениям
Вы не можете скачивать файлы