Дорога в Редемпшн / Redemption Road (Марио Ван Пиблз / Mario Van Peebles) [2010, США, драма, HDTVRip] MVO

 
Автор Сообщение

reversefile ®

Пол:

Стаж: 4 года 5 месяцев

Сообщений: 842

Откуда: ReverseFile.org



Награды: Нет

Торрент-статистика

Создавать темы 13-Авг-2014 10:02

[Цитировать]

Дорога в Редемпшн / Redemption Road
Страна: США
Жанр: драма
Год выпуска: 2010
Продолжительность: 01:31:25
Перевод: Профессиональный (многоголосый закадровый)
Cубтитры: нет
Режиссер: Марио Ван Пиблз / Mario Van Peebles
В ролях: Тэрин Мэннинг, Майкл Кларк Дункан, Киле Санчес, Люк Перри, Том Скеррит, Мелвин Ван Пиблз, Линдс Эдвардс, Джет Юргенсмейер, Джеймс Кук, Катрин МакГухан
Описание: Джефферсон Бэйли — большой поклонник блюза, талантливый автор-исполнитель из Техаса, который прекратил свою карьеру из-за страха перед сценой. После разрыва с женой, которая изменила ему, Бэйли неохотно решает присоединиться к незнакомцу Оджи и отправиться вместе с ним в долгую поездку в Хантсвилл, город в Алабаме, где Джефферсон когда-то жил.
Доп. информация: За исходник большое спасибо Romanok8691
Сэмпл: https://yadi.sk/i/Gp_xuGNqZPHMC
Качество видео: HDTVRip
Формат видео: AVI
Видео: 720x400 (1.80:1), 25 fps, XviD build 50 ~1999 kbps avg, 0.28 bit/pixel
Аудио: 48 kHz, AC3 Dolby Digital, 2/0 (L,R) ch, ~192 kbps

MediaInfo

Дорога в Редемпшн - Redemption Road [by Edich2].avi
Format : AVI
Format/Info : Audio Video Interleave
File size : 1.41 GiB
Duration : 1h 31mn
Overall bit rate : 2 202 Kbps
Movie name : Дорога в Редемпшн - Redemption Road [by Edich2]
Director : Rip by Edich2
Writing application : VirtualDubMod 1.5.10.3 | www.virtualdub-fr.org || (build 2550/release)
Comment : RuTracker.org
Video
ID : 0
Format : MPEG-4 Visual
Format profile : Advanced Simple@L5
Format settings, BVOP : 2
Format settings, QPel : No
Format settings, GMC : No warppoints
Format settings, Matrix : Custom
Codec ID : XVID
Codec ID/Hint : XviD
Duration : 1h 31mn
Bit rate : 2 000 Kbps
Width : 720 pixels
Height : 400 pixels
Display aspect ratio : 16:9
Frame rate : 25.000 fps
Color space : YUV
Chroma subsampling : 4:2:0
Bit depth : 8 bits
Scan type : Progressive
Compression mode : Lossy
Bits/(Pixel*Frame) : 0.278
Stream size : 1.28 GiB (91%)
Writing library : XviD 1.2.1 (UTC 2008-12-04)
Audio
ID : 1
Format : AC-3
Format/Info : Audio Coding 3
Mode extension : CM (complete main)
Format settings, Endianness : Big
Codec ID : 2000
Duration : 1h 31mn
Bit rate mode : Constant
Bit rate : 192 Kbps
Channel(s) : 2 channels
Channel positions : Front: L R
Sampling rate : 48.0 KHz
Bit depth : 16 bits
Compression mode : Lossy
Stream size : 126 MiB (9%)
Alignment : Split accross interleaves
Interleave, duration : 40 ms (1.00 video frame)
Interleave, preload duration : 500 ms

Скриншоты


[Профиль] [ЛС]

Создавать темы 06-Авг-2015 23:19 (спустя 11 месяцев 24 дня)

Топик был перенесен из форума Фильмы до 2014 года в форум Фильмы до 2012 года
sergej644
 

Создавать темы 12-Июн-2016 07:54 (спустя 1 год 9 месяцев)

Топик был перенесен из форума Фильмы 2011 года в форум Фильмы 2010 года
Russian Mafia
 
Показать сообщения:    

Текущее время: Сегодня 06:08

Часовой пояс: GMT



Вы не можете начинать темы
Вы не можете отвечать на сообщения
Вы не можете редактировать свои сообщения
Вы не можете удалять свои сообщения
Вы не можете голосовать в опросах
Вы не можете прикреплять файлы к сообщениям
Вы не можете скачивать файлы