Дорога в ад / Highway to Hell (1991) BDRip 1080p | P, A

 
Автор Сообщение

Russian Mafia ®

Пол:

Стаж: 1 год 8 месяцев

Сообщений: 4257



Награды: 10 (Подробнее)

Mega Seeder 2 (Количество: 1) За внесенный вклад в развитие сайта (Количество: 1) Mega Seeder 1 (Количество: 1)
Торрент-статистика

Создавать темы 26-Апр-2016 08:16

[Цитировать]

Название: Дорога в ад
Оригинальное название: Highway to Hell
Год выхода: 1991
Страна: США
Студия: Goodman / Rosen Productions, Josa
Продолжительность: 01:33:40
Жанр: ужасы, фэнтези, комедия, приключения, ...
Режиссер: Ате де Йонг
В ролях: Патрик Бергин, Адам Сторке, Чад Лоу, Кристи Суонсон, Памела Гидли, Джарретт Леннон, С.Дж. Грэхэм, Ричард Фарнсуорт, Лита Форд, Гилберт Готтфрид, ...
Перевод:
- Профессиональный (многоголосный, закадровый) TV ОРТ
- Авторский (одноголосый, закадровый) Горчаков Василий Овидиевич
- Авторский (одноголосый, закадровый) Кашкин Александр
- Авторский (одноголосый, закадровый) Кузнецов Сергей
О фильме: Веселенькая история о том, как, некстати заснув за рулем, вполне можно попасть абсолютно не туда, куда собирался. Такая неприятность произошла с молодым человеком по имени Чарли, который ехал по ночному хайвэю и неожиданно встретился с неким ужасным существом в полицейской форме, который имел вид чрезвычайно зловещий и агрессивный, а ко всему прочему забрал у Чарли невесту и укатил с ней в неизвестном направлении. Мудрый старик, хозяин близлежащего придорожного мотеля «Последний шанс», обьясняет потрясенному пареньку суть его проблемы — оказывается, где-то на дороге расположен незримый для глаза вход в другое измерение, в странный и мрачноватый мир, в центре которого находится обитель самого Дьявола — Адский город…

Кодек: x264
Качество: BDRip 1080p
Видео: 1920x1040, 14000 kbps, 23,976 fps
Аудио #1: AC-3, 2 ch, 192 kbps (Rus) - MVO ОРТ (первые 11 минут со вставкой Горчакова)
Аудио #2: AC-3, 2 ch, 192 kbps (Rus) - AVO Горчаков Василий Овидиевич
Аудио #3: AC-3, 2 ch, 192 kbps (Rus) - AVO Кашкин Александр (aka Первомайский)
Аудио #4: AC-3, 2 ch, 192 kbps (Rus) - AVO Кузнецов Сергей
Аудио #5: FLAC, 2 ch, 606 kbps (Eng)
Субтитры: нет
Спасибо за исходник

MediaInfo

x264 [info]: frame I:747 Avg QP:16.13 size:206164
x264 [info]: frame P:28656 Avg QP:18.36 size:112039
x264 [info]: frame B:105333 Avg QP:20.18 size: 61343
x264 [info]: consecutive B-frames: 1.8% 2.6% 6.9% 17.2% 17.1% 44.3% 5.6% 1.5% 1.2% 0.5% 0.3% 0.3% 0.6%
Общее
Уникальный идентификатор : 232307698805039423687835785814065769104 (0xAEC4D5D91B40C404983F38BFAA6F6A90)
Полное имя : Дорога в ад (Highway to Hell) 1991 BDRip 1080p.mkv
Формат : Matroska
Версия формата : Version 2
Размер файла : 10,1 Гбайт
Продолжительность : 1 ч. 33 м.
Режим общего битрейта : Переменный
Общий поток : 15,4 Мбит/сек
Дата кодирования : UTC 2016-04-26 05:12:55
Программа кодирования : mkvmerge v4.0.0 ('The Stars were mine') сборка от Jun 6 2010 16:18:42
Библиотека кодирования : libebml v1.0.0 + libmatroska v1.0.0
Видео
Идентификатор : 1
Формат : AVC
Формат/Информация : Advanced Video Codec
Профиль формата : High@L4.1
Параметр CABAC формата : Да
Параметр ReFrames формата : 4 кадра
Идентификатор кодека : V_MPEG4/ISO/AVC
Продолжительность : 1 ч. 33 м.
Номинальный битрейт : 14,0 Мбит/сек
Ширина : 1920 пикселей
Высота : 1040 пикселей
Соотношение сторон : 1,85:1
Режим частоты кадров : Постоянный
Частота кадров : 23,976 кадра/сек
Цветовое пространство : YUV
Субдискретизация насыщенности : 4:2:0
Битовая глубина : 8 бит
Тип развёртки : Прогрессивная
Бит/(Пиксели*Кадры) : 0.292
Библиотека кодирования : x264 core 146 r2538 121396c
Настройки программы : cabac=1 / ref=4 / deblock=1:-3:-3 / analyse=0x3:0x133 / me=umh / subme=11 / psy=1 / psy_rd=1.10:0.16 / mixed_ref=1 / me_range=32 / chroma_me=1 / trellis=2 / 8x8dct=1 / cqm=0 / deadzone=21,11 / fast_pskip=0 / chroma_qp_offset=-3 / threads=12 / lookahead_threads=2 / sliced_threads=0 / nr=0 / decimate=0 / interlaced=0 / bluray_compat=0 / constrained_intra=0 / bframes=12 / b_pyramid=2 / b_adapt=2 / b_bias=0 / direct=3 / weightb=1 / open_gop=0 / weightp=2 / keyint=240 / keyint_min=23 / scenecut=40 / intra_refresh=0 / rc_lookahead=60 / rc=2pass / mbtree=0 / bitrate=14000 / ratetol=1.0 / qcomp=0.60 / qpmin=0 / qpmax=69 / qpstep=4 / cplxblur=20.0 / qblur=0.5 / vbv_maxrate=50000 / vbv_bufsize=62500 / nal_hrd=none / filler=0 / ip_ratio=1.40 / pb_ratio=1.30 / aq=1:0.90
Язык : English
Default : Нет
Forced : Нет
Аудио #1
Идентификатор : 2
Формат : AC-3
Формат/Информация : Audio Coding 3
Расширение режима : CM (complete main)
Параметр Endianness формата : Big
Идентификатор кодека : A_AC3
Продолжительность : 1 ч. 33 м.
Вид битрейта : Постоянный
Битрейт : 192 Кбит/сек
Каналы : 2 канала
Расположение каналов : Front: L R
Частота : 48,0 КГц
Метод сжатия : С потерями
Размер потока : 129 Мбайт (1%)
Заголовок : MVO ОРТ (первые 11 минут со вставкой Горчакова)
Язык : Russian
Default : Нет
Forced : Нет
Аудио #2
Идентификатор : 3
Формат : AC-3
Формат/Информация : Audio Coding 3
Расширение режима : CM (complete main)
Параметр Endianness формата : Big
Идентификатор кодека : A_AC3
Продолжительность : 1 ч. 33 м.
Вид битрейта : Постоянный
Битрейт : 192 Кбит/сек
Каналы : 2 канала
Расположение каналов : Front: L R
Частота : 48,0 КГц
Метод сжатия : С потерями
Размер потока : 129 Мбайт (1%)
Заголовок : AVO Горчаков Василий Овидиевич
Язык : Russian
Default : Нет
Forced : Нет
Аудио #3
Идентификатор : 4
Формат : AC-3
Формат/Информация : Audio Coding 3
Расширение режима : CM (complete main)
Параметр Endianness формата : Big
Идентификатор кодека : A_AC3
Продолжительность : 1 ч. 33 м.
Вид битрейта : Постоянный
Битрейт : 192 Кбит/сек
Каналы : 2 канала
Расположение каналов : Front: L R
Частота : 48,0 КГц
Метод сжатия : С потерями
Размер потока : 129 Мбайт (1%)
Заголовок : AVO Кашкин Александр (aka Первомайский)
Язык : Russian
Default : Нет
Forced : Нет
Аудио #4
Идентификатор : 5
Формат : AC-3
Формат/Информация : Audio Coding 3
Расширение режима : CM (complete main)
Параметр Endianness формата : Big
Идентификатор кодека : A_AC3
Продолжительность : 1 ч. 33 м.
Вид битрейта : Постоянный
Битрейт : 192 Кбит/сек
Каналы : 2 канала
Расположение каналов : Front: L R
Частота : 48,0 КГц
Метод сжатия : С потерями
Размер потока : 129 Мбайт (1%)
Заголовок : AVO Кузнецов Сергей
Язык : Russian
Default : Нет
Forced : Нет
Аудио #5
Идентификатор : 6
Формат : FLAC
Формат/Информация : Free Lossless Audio Codec
Идентификатор кодека : A_FLAC
Продолжительность : 1 ч. 33 м.
Вид битрейта : Переменный
Каналы : 2 канала
Частота : 48,0 КГц
Битовая глубина : 16 бит
Библиотека кодирования : libFLAC 1.2.1 (UTC 2007-09-17)
Язык : English
Default : Нет
Forced : Нет

[Профиль] [ЛС]
Показать сообщения:    

Текущее время: Сегодня 09:58

Часовой пояс: GMT



Вы не можете начинать темы
Вы не можете отвечать на сообщения
Вы не можете редактировать свои сообщения
Вы не можете удалять свои сообщения
Вы не можете голосовать в опросах
Вы не можете прикреплять файлы к сообщениям
Вы не можете скачивать файлы