Дориан Грей / Dorian Gray (Оливер Паркер / Oliver Parker) [2009, Великобритания, Фэнтези, триллер, драма, экранизация, HDRip] Dub + MVO

 
Автор Сообщение

TorrentFilm ®

Пол:

Стаж: 2 года

Сообщений: 7741



Награды: Нет

Торрент-статистика

Создавать темы 17-Май-2015 00:04

[Цитировать]

Дориан Грей / Dorian Gray
-Страна: Великобритания
Жанр: Фэнтези, триллер, драма, экранизация
Год выпуска: 2009
Продолжительность: 1:52:17-Перевод 1: Профессиональный (дублированный)
Перевод 2: Профессиональный (многоголосый закадровый)
Cубтитры: нет
Оригинальная аудиодорожка: нет-Режиссер: Оливер Паркер / Oliver Parker-В ролях: Бен Барнс, Колин Фёрт, Бен Чаплин, Ребекка Холл, Фиона Шоу, Пип Торренс, Джон Холлинворт, Като Сэндфорд, Кэролайн Гудолл, Мэриам д’Або, Майкл Калкин, Эмилия Фокс, Нэйтан Розен, Джефф Липман, Луис Кемптон, Дуглас Хеншэлл, Рэйчел Херд-Вуд, Джонни Харрис, Джордж Поттс, Грант Кук, Дэвид Стерн-Описание: Молодой и невероятно красивый Дориан Грей приезжает в Лондон и попадает под влияние искателя приключений лорда Уоттона. Он внушил юноше, что секрет успеха и счастья Дориана — в его красоте, ведь она поможет получить все удовольствия мира. Дориан заключает сделку с Дьяволом. Юноша заказывает свой портрет, и теперь вся грязь его жизни, полной распутства и преступных страстей, будет пачкать и портить полотно, его же собственное лицо останется вечно юным и прекрасным. Проскитавшись по свету в поисках наслаждений 25 лет, Дориан возвращается на родину. Захваченный врасплох сильными чувствами, он впервые понял ценность взаимной любви. Но на пути к счастью железной преградой встало темное и загадочное прошлое Дориана…-Сэмпл / КиноПоиск-Качество видео: HDRip
Формат видео: AVI-Видео: MPEG-4 Visual at 1700 Кбит/сек, 720 x 384 (1.875) at 24.000 fps
Аудио 1: AC-3 at 448 Кбит/сек, 6 каналов, 48,0 КГц
Аудио 2: AC-3 at 448 Кбит/сек, 6 каналов, 48,0 КГц

MediaInfo

Общее
Полное имя : C:\Kino\Dorian Gray.2009.HDRip\Dorian Gray.2009.HDRip.avi
Формат : AVI
Формат/Информация : Audio Video Interleave
Профиль формата : OpenDML
Размер файла : 2,05 Гбайт
Продолжительность : 1 ч. 52 м.
Общий поток : 2615 Кбит/сек
Программа кодирования : VirtualDubMod 1.5.10.2 (build 2542/release)
Библиотека кодирования : VirtualDubMod build 2542/release
Видео
Идентификатор : 0
Формат : MPEG-4 Visual
Профиль формата : Advanced Simple@L5
Параметр BVOP формата : 1
Параметр QPel формата : Нет
Параметр GMC формата : Без точки перехода
Параметр матрицы формата : Выборочная
Идентификатор кодека : XVID
Идентификатор кодека/Подсказка : XviD
Продолжительность : 1 ч. 52 м.
Битрейт : 1700 Кбит/сек
Ширина : 720 пикселей
Высота : 384 пикселя
Соотношение сторон : 1,85:1
Частота кадров : 24,000 кадра/сек
Цветовое пространство : YUV
Субдискретизация насыщенности : 4:2:0
Битовая глубина : 8 бит
Тип развёртки : Прогрессивная
Метод сжатия : С потерями
Бит/(Пиксели*Кадры) : 0.256
Размер потока : 1,33 Гбайт (65%)
Библиотека кодирования : XviD 64
Аудио #1
Идентификатор : 1
Формат : AC-3
Формат/Информация : Audio Coding 3
Расширение режима : CM (complete main)
Параметр Endianness формата : Big
Идентификатор кодека : 2000
Продолжительность : 1 ч. 52 м.
Вид битрейта : Постоянный
Битрейт : 448 Кбит/сек
Каналы : 6 каналов
Расположение каналов : Front: L C R, Side: L R, LFE
Частота : 48,0 КГц
Битовая глубина : 16 бит
Метод сжатия : С потерями
Размер потока : 360 Мбайт (17%)
Выравнивание : Разделение по промежуткам
Продолжительность промежутка : 42 мс. (1,00 видеокадр)
Время предзагрузки промежутка : 500 мс.
Аудио #2
Идентификатор : 2
Формат : AC-3
Формат/Информация : Audio Coding 3
Расширение режима : CM (complete main)
Параметр Endianness формата : Big
Идентификатор кодека : 2000
Продолжительность : 1 ч. 52 м.
Вид битрейта : Постоянный
Битрейт : 448 Кбит/сек
Каналы : 6 каналов
Расположение каналов : Front: L C R, Side: L R, LFE
Частота : 48,0 КГц
Битовая глубина : 16 бит
Метод сжатия : С потерями
Размер потока : 360 Мбайт (17%)
Выравнивание : Разделение по промежуткам
Продолжительность промежутка : 42 мс. (1,00 видеокадр)
Время предзагрузки промежутка : 500 мс.

Скриншоты

[Профиль] [ЛС]

Создавать темы 06-Авг-2015 22:31 (спустя 2 месяца 20 дней)

Топик был перенесен из форума Фильмы до 2014 года в форум Фильмы до 2012 года
sergej644
 

Создавать темы 12-Июн-2016 08:49 (спустя 1 год)

Топик был перенесен из форума Фильмы 2011 года в форум Фильмы 2009 года
Russian Mafia
 
Показать сообщения:    

Текущее время: Сегодня 04:22

Часовой пояс: GMT



Вы не можете начинать темы
Вы не можете отвечать на сообщения
Вы не можете редактировать свои сообщения
Вы не можете удалять свои сообщения
Вы не можете голосовать в опросах
Вы не можете прикреплять файлы к сообщениям
Вы не можете скачивать файлы