Дориан Грей / Dorian Gray (Оливер Паркер / Oliver Parker) [2009, Великобритания, драма, BDRip-AVC] Dub + Sub Rus, Eng + Original Eng

 
Автор Сообщение

painkiller ®

Стаж: 2 года 3 месяца

Сообщений: 582



Награды: Нет

Торрент-статистика

Создавать темы 14-Авг-2014 09:11

[Цитировать]

Дориан Грей / Dorian Gray«Молодой навсегда. Проклятый навеки»- Страна: Великобритания
Жанр: драма
Год выпуска: 2009
Продолжительность: 1:52:20
Перевод: Профессиональный (дублированный)
Cубтитры: Rus, Eng
Оригинальная аудиодорожка: английский
Режиссер: Оливер Паркер / Oliver Parker
В ролях:
Колин Ферт / Colin Firth
Бен Барнс / Ben Barnes
Рейчел Херд-Вуд, Ребекка Холл, Эмилия Фокс, Бен Чаплин, Кэролайн Гудолл, Фиона Шоу, Мэриам Д`Або, Дэниэл Ньюман, Дуглас Хеншэлл, Дэвид Стерн, Майкл Калкин, Джонни Харрис, Макс Айронс, Джо Вудкок, Пип Торренс, Хью Росс, Таллула Шеффилд, Лили Гаррет, Луиз Роуз-ОписаниеМолодой и невероятно красивый Дориан Грей приезжает в Лондон и попадает под влияние искателя приключений лорда Уоттона. Он внушил юноше, что секрет успеха и счастья Дориана — в его красоте, ведь она поможет получить все удовольствия мира. Дориан заключает сделку с Дьяволом. Юноша заказывает свой портрет, и теперь вся грязь его жизни, полной распутства и преступных страстей, будет пачкать и портить полотно, его же собственное лицо останется вечно юным и прекрасным.
Проскитавшись по свету в поисках наслаждений 25 лет, Дориан возвращается на родину. Захваченный врасплох сильными чувствами, он впервые понял ценность взаимной любви. Но на пути к счастью железной преградой встало темное и загадочное прошлое Дориана…-Сэмпл

IMDb: 6.30 (42 055)
Качество видео: BDRip-AVC Дориан Грей / Dorian Gray (2009) Blu-ray 1080p AVC DTS-HD 5.1 hdclub
Формат видео: MKV
Видео: AVC 2015 Kbps 1040 x 564 (1.844) 23.976 fps
Аудио: AC-3 384 Kbps 6 channels, 48.0 KHz Rus Dub
Аудио 2: AC-3 384 Kbps 6 channels, 48.0 KHz Eng
Формат субтитров: softsub (SRT)

MediaInfo | LogLog

raw [info] 1040x564p 11 @ 2500000104271 fps (cfr)
x264 [info] using SAR=11
x264 [info] using cpu capabilities MMX2 SSE2Fast SSSE3 SSE4.2 AVX
x264 [info] profile High, level 4.1
x264 [info] frame I1458 Avg QP13.44 size 88394
x264 [info] frame P33348 Avg QP16.88 size 25391
x264 [info] frame B126693 Avg QP19.90 size 5683
x264 [info] consecutive B-frames 2.0% 2.0% 7.1% 15.9% 17.8% 39.0% 9.0% 2.6% 4.6%
x264 [info] mb I I16..4 7.3% 69.6% 23.2%
x264 [info] mb P I16..4 0.9% 8.0% 1.7% P16..4 31.7% 35.2% 12.2% 2.3% 0.3% skip 7.7%
x264 [info] mb B I16..4 0.1% 0.9% 0.2% B16..8 36.4% 16.6% 1.9% direct 3.0% skip40.9% L044.0% L146.1% BI 9.9%
x264 [info] 8x8 transform intra73.9% inter60.7%
x264 [info] direct mvs spatial98.6% temporal1.4%
x264 [info] coded y,uvDC,uvAC intra 77.9% 74.4% 48.4% inter 15.7% 13.2% 2.2%
x264 [info] i16 v,h,dc,p 37% 14% 8% 42%
x264 [info] i8 v,h,dc,ddl,ddr,vr,hd,vl,hu 14% 7% 10% 9% 12% 13% 11% 12% 12%
x264 [info] i4 v,h,dc,ddl,ddr,vr,hd,vl,hu 31% 6% 9% 7% 10% 11% 9% 9% 8%
x264 [info] i8c dc,h,v,p 38% 28% 20% 14%
x264 [info] Weighted P-Frames Y3.1% UV1.3%
x264 [info] ref P L0 47.0% 9.3% 17.9% 6.6% 5.2% 3.6% 3.2% 1.9% 1.6% 1.3% 1.2% 1.1% 0.2% 0.0%
x264 [info] ref B L0 74.5% 11.3% 5.3% 2.5% 1.8% 1.4% 1.1% 0.7% 0.7% 0.4% 0.1%
x264 [info] ref B L1 92.4% 7.6%
x264 [info] kbs2013.86
x264 [total] encoded 161499 frames, 9.49 fps, 2013.87 kbs
Format : Matroska
Format version : Version 4 / Version 2
File size : 2.18 GiB
Duration : 1h 52mn
Overall bit rate : 2 783 Kbps
Encoded date : UTC 2014-07-07 22:25:34
Writing application : mkvmerge v6.7.0 ('Back to the Ground') 32bit built on Jan 8 2014 15:03:17
Writing library : libebml v1.3.0 + libmatroska v1.4.1
Video
ID : 1
Format : AVC
Format/Info : Advanced Video Codec
Format profile : High@L4.1
Format settings, CABAC : Yes
Format settings, ReFrames : 12 frames
Codec ID : V_MPEG4/ISO/AVC
Duration : 1h 52mn
Bit rate : 2 015 Kbps
Width : 1 040 pixels
Height : 564 pixels
Display aspect ratio : 1.85:1
Frame rate mode : Constant
Frame rate : 23.976 fps
Color space : YUV
Chroma subsampling : 4:2:0
Bit depth : 8 bits
Scan type : Progressive
Bits/(Pixel*Frame) : 0.143
Stream size : 1.54 GiB (70%)
Writing library : x264 core 140 r2377 1ca7bb9
Encoding settings : cabac=1 / ref=12 / deblock=1:-2:-1 / analyse=0x3:0x133 / me=umh / subme=11 / psy=1 / psy_rd=1.00:0.05 / mixed_ref=1 / me_range=32 / chroma_me=1 / trellis=2 / 8x8dct=1 / cqm=0 / deadzone=21,11 / fast_pskip=0 / chroma_qp_offset=-3 / threads=12 / lookahead_threads=2 / sliced_threads=0 / nr=0 / decimate=1 / interlaced=0 / bluray_compat=0 / constrained_intra=0 / bframes=8 / b_pyramid=2 / b_adapt=2 / b_bias=0 / direct=3 / weightb=1 / open_gop=0 / weightp=2 / keyint=250 / keyint_min=23 / scenecut=40 / intra_refresh=0 / rc_lookahead=60 / rc=2pass / mbtree=1 / bitrate=2015 / ratetol=1.0 / qcomp=0.60 / qpmin=0 / qpmax=69 / qpstep=4 / cplxblur=20.0 / qblur=0.5 / ip_ratio=1.40 / aq=1:1.00
Language : English
Default : Yes
Forced : No
Audio #1
ID : 2
Format : AC-3
Format/Info : Audio Coding 3
Mode extension : CM (complete main)
Format settings, Endianness : Big
Codec ID : A_AC3
Duration : 1h 52mn
Bit rate mode : Constant
Bit rate : 384 Kbps
Channel(s) : 6 channels
Channel positions : Front: L C R, Side: L R, LFE
Sampling rate : 48.0 KHz
Bit depth : 16 bits
Compression mode : Lossy
Stream size : 309 MiB (14%)
Title : Dub
Language : Russian
Default : Yes
Forced : No
Audio #2
ID : 3
Format : AC-3
Format/Info : Audio Coding 3
Mode extension : CM (complete main)
Format settings, Endianness : Big
Codec ID : A_AC3
Duration : 1h 52mn
Bit rate mode : Constant
Bit rate : 384 Kbps
Channel(s) : 6 channels
Channel positions : Front: L C R, Side: L R, LFE
Sampling rate : 48.0 KHz
Bit depth : 16 bits
Compression mode : Lossy
Stream size : 309 MiB (14%)
Title : Original
Language : English
Default : No
Forced : No
Text #1
ID : 4
Format : UTF-8
Codec ID : S_TEXT/UTF8
Codec ID/Info : UTF-8 Plain Text
Language : Russian
Default : No
Forced : No
Text #2
ID : 5
Format : UTF-8
Codec ID : S_TEXT/UTF8
Codec ID/Info : UTF-8 Plain Text
Language : English
Default : No
Forced : No
Menu
00:00:00.000 : en:00:00:00.000
00:03:59.322 : en:00:03:59.322
00:07:47.592 : en:00:07:47.592
00:14:26.324 : en:00:14:26.324
00:20:21.846 : en:00:20:21.846
00:24:37.768 : en:00:24:37.768
00:28:27.581 : en:00:28:27.581
00:30:52.768 : en:00:30:52.768
00:36:54.712 : en:00:36:54.712
00:41:24.357 : en:00:41:24.357
00:47:02.194 : en:00:47:02.194
00:50:11.926 : en:00:50:11.926
00:57:27.778 : en:00:57:27.778
01:01:17.549 : en:01:01:17.549
01:06:25.356 : en:01:06:25.356
01:12:53.244 : en:01:12:53.244
01:15:11.924 : en:01:15:11.924
01:18:34.960 : en:01:18:34.960
01:22:18.267 : en:01:22:18.267
01:27:02.551 : en:01:27:02.551
01:30:43.980 : en:01:30:43.980
01:35:00.028 : en:01:35:00.028
01:38:42.458 : en:01:38:42.458
01:46:11.198 : en:01:46:11.198

Скриншоты

[Профиль] [ЛС]

Создавать темы 06-Авг-2015 23:17 (спустя 11 месяцев 23 дня)

Топик был перенесен из форума Фильмы до 2014 года в форум Фильмы до 2012 года
sergej644
 

Создавать темы 12-Июн-2016 08:48 (спустя 1 год 9 месяцев)

Топик был перенесен из форума Фильмы 2011 года в форум Фильмы 2009 года
Russian Mafia
 
Показать сообщения:    

Текущее время: Сегодня 14:35

Часовой пояс: GMT



Вы не можете начинать темы
Вы не можете отвечать на сообщения
Вы не можете редактировать свои сообщения
Вы не можете удалять свои сообщения
Вы не можете голосовать в опросах
Вы не можете прикреплять файлы к сообщениям
Вы не можете скачивать файлы