Дон Сезар де Базан (1989) DVD9 | Реставрация

 
Автор Сообщение

sergej644 ®

Пол:

Стаж: 4 года 11 месяцев

Сообщений: 6046

Откуда: Soviet Union



Награды: Нет

Торрент-статистика

Создавать темы 07-Авг-2015 09:36

[Цитировать]

Информация о фильме
Название: Дон Сезар де Базан
Год выхода: 1989
Жанр: мюзикл, комедия
Режиссер: Ян Фрид
В ролях: Михаил Боярский, Анна Самохина, Юрий Богатырев, Наталья Лапина, Игорь Дмитриев, Виктория Горшенина, Михаил Светин, Юрий Дедович, Василий Леонов, Андрей Краско
О фильме:
Испания XVIII век. Обедневший граф любит уличную танцовщицу, а она — его. Но их союзу противостоит самодовольный и беспринципный испанский король! Он положил глаз на прекрасную барышню и посадил несчастного графа в тюрьму. Дни узника сочтены… Однако настоящая любовь способна преодолеть и не такие преграды!

Страна: СССР
Студия: Ленфильм
Продолжительность: 134 мин. / 02:14
Перевод: не требуется
Бонусы: Фильмографии
Файл
Кодек: MPEG2
Качество: DVD9
Видео: PAL 4:3 (720x576@768x576) VBR 5548 Kbps, 25.000 fps
Аудио 1: Dolby AC3, 6 ch, 48.0 KHz, 448 Кbps
Аудио 2: Dolby AC3, 1 ch, 48.0 KHz, 224 Кbps
Аудио 3: DTS 6 ch, 48.0 KHz, 768 Кbps
Субтитры: отсутствуют

MediaInfo

General
Complete name : E:Don.Sesar.De.Basan.DVD9VIDEO_TSVTS_01_2.VOB
Format : MPEG-PS
File size : 1 024 MiB
Duration : 20mn 6s
Overall bit rate mode : Variable
Overall bit rate : 7 117 Kbps
Video
ID : 224 (0xE0)
Format : MPEG Video
Format version : Version 2
Format profile : Main@Main
Format settings, BVOP : Yes
Format settings, Matrix : Custom
Format settings, GOP : M=3, N=13
Duration : 20mn 6s
Bit rate mode : Variable
Bit rate : 5 548 Kbps
Maximum bit rate : 8 000 Kbps
Width : 720 pixels
Height : 576 pixels
Display aspect ratio : 4:3
Frame rate : 25.000 fps
Standard : PAL
Color space : YUV
Chroma subsampling : 4:2:0
Bit depth : 8 bits
Scan type : Progressive
Compression mode : Lossy
Bits/(Pixel*Frame) : 0.535
Time code of first frame : 00:17:52:10
Time code source : Group of pictures header
GOP, Open/Closed : Closed
Stream size : 798 MiB (78%)
Color primaries : BT.601 PAL
Transfer characteristics : BT.470 System B, BT.470 System G
Matrix coefficients : BT.601
Audio #1
ID : 189 (0xBD)-128 (0x80)
Format : AC-3
Format/Info : Audio Coding 3
Mode extension : CM (complete main)
Format settings, Endianness : Big
Muxing mode : DVD-Video
Duration : 20mn 6s
Bit rate mode : Constant
Bit rate : 448 Kbps
Channel(s) : 6 channels
Channel positions : Front: L C R, Side: L R, LFE
Sampling rate : 48.0 KHz
Bit depth : 16 bits
Compression mode : Lossy
Delay relative to video : -184ms
Stream size : 64.4 MiB (6%)
Audio #2
ID : 189 (0xBD)-129 (0x81)
Format : AC-3
Format/Info : Audio Coding 3
Mode extension : CM (complete main)
Format settings, Endianness : Big
Muxing mode : DVD-Video
Duration : 20mn 6s
Bit rate mode : Constant
Bit rate : 224 Kbps
Channel(s) : 1 channel
Channel positions : Front: C
Sampling rate : 48.0 KHz
Bit depth : 16 bits
Compression mode : Lossy
Delay relative to video : -152ms
Stream size : 32.2 MiB (3%)
Audio #3
ID : 189 (0xBD)-138 (0x8A)
Format : DTS
Format/Info : Digital Theater Systems
Mode : 16
Format settings, Endianness : Big
Muxing mode : DVD-Video
Duration : 20mn 6s
Bit rate mode : Constant
Bit rate : 755 Kbps
Channel(s) : 6 channels
Channel positions : Front: L C R, Side: L R, LFE
Sampling rate : 48.0 KHz
Bit depth : 24 bits
Compression mode : Lossy
Delay relative to video : -248ms
Stream size : 109 MiB (11%)
Menu

Скриншоты

[Профиль] [ЛС]
Кто просматривает тему:

Показать сообщения:    

Текущее время: Сегодня 12:11

Часовой пояс: GMT



Вы не можете начинать темы
Вы не можете отвечать на сообщения
Вы не можете редактировать свои сообщения
Вы не можете удалять свои сообщения
Вы не можете голосовать в опросах
Вы не можете прикреплять файлы к сообщениям
Вы не можете скачивать файлы