Дон Кихот (Григорий Козинцев) [1957, СССР, Драма, DVD9] + Sub Rus, Eng, Fra, Deu, Esp, Ita + Original Rus / RUSCICO

 
Автор Сообщение

TorrentFilm ®

Пол:

Стаж: 1 год 11 месяцев

Сообщений: 7741



Награды: Нет

Торрент-статистика

Создавать темы 04-Янв-2016 00:03

[Цитировать]

Дон Кихот / RUSCICO «The Pages, The People, The Lusty Laughter, The Robust Passions of Cervantes' Classic!»
Страна:СССР
Студия:Ленфильм.
Жанр:Драма
Год выпуска:1957
Продолжительность:01:41:32
Производитель:RUSCICO
Перевод :Не требуется
Cубтитры:Русские, Английские, Французские, Немецкие, Испанские, Итальяские
Оригинальная аудиодорожка:Русский
Премьера (мир):23.05.1957
Режиссер:Григорий КозинцевВ ролях:Николай Черкасов — Дон Кихот
Юрий Толубеев — Санчо Панса
Серафима Бирман — экономка
Светлана Григорьева — племянница Дона Кихота
Василий Максимов — священник
Виктор Колпаков — цирюльник
Людмила Касьянова — Альдонса
Тамилла Агамирова — Альтисидора
Георгий Вицин — Карраско
Бруно Фрейндлих — герцог
Лидия Вертинская — герцогиня
Галина Волчек — Мариторнес
Ольга Викландт — крестьянка
Александр Бениаминов — пастух
С. Цомаев — Андрес
Описание:Бессмертная история о романтике, чудаке и мечтателе храбром рыцаре Дон Кихоте Ламанчском, и о его спутнике, верном оруженосце Санчо Пансе. Алонсо Кихано, Дон Кихот Ламанчский, был настолько влюблен в рыцарские романы, что решил сам сделаться рыцарем и отправиться в поход, хотя времена рыцарства давно миновали…
Доп. информация:Исходник найден в сети.Сценарий:Евгений Шварц, Мигель де Сервантес СааведраДиректор фильма:Михаил ШостакКомпозитор:Кара КараевХудожник:Натан Альтман, Евгений Еней, М. РафаловичОператор:Аполлинарий Дудко, Андрей Москвин, Йонас Грицюс
Монтаж:Е. Маханкова

Это интересно

Козинцев, Григорий Михайлович-https://ru.wikipedia.org/wiki/Козинцев,_Григорий_Михайлович Фильм-[url=https://ru.wikipedia.org/wiki/Дон_Кихот_(фильм)]https://ru.wikipedia.org/wiki/Дон_Кихот_(фильм)[/url]Первый цветной широкоэкранный стереозвуковой фильм киностудии "Ленфильм".

Бонусы

Мигель де Сервантес СааведраИнтервью с оператором Э.РозовскимФотоальбом

Награды и номинации

Каннский кинофестиваль, 1957 год
Номинации (1):
Золотая пальмовая ветвь
1958 — Всесоюзный кинофестиваль
Первая премия за операторскую работу Андрею Москвину на ВКФ в 1958 году;
Вторая премия за режиссуру Григорию Козинцеву
Вторая премия за операторскую работу Аполлинарию Дудко
Третья премия по разделу художественных фильмов Григорию Козинцеву
1958 — МКФ в Ванкувере
Почетная грамота Григорию Козинцеву
1958 — МКФ в Стратфорде
Премия Николаю Черкасову как лучшему актёру
1964 — МКФ в Сан-Себастьяне
Приз Григорию Козинцеву
Меню:Русский, Английский, Французский, Анимированное, ОзвученноеСэмпл:http://multi-up.com/998754
Тип релиза:DVD9
Контейнер:DVD-Video
Видео:PAL 4:3 (720x576) VBR, 6078 Кбит/сек, 25,000 кадров/сек
Аудио 1:Русский: AC3, 6 ch, 48,0 КГц, 448 KbpsАудио 2: Русский: AC3, 1 ch, 48,0 КГц, 96 KbpsАудио 3:Испанский: AC3, 6 ch, 48,0 КГц, 448 Kbps
Формат субтитров:prerendered (DVD/IDX+SUB)

Dvd Info

Title:Title: Дон Кихот DVD-9
Size: 5.87 Gb ( 6 152 314,00 KBytes ) - DVD-9
Enabled regions: 1, 2, 3, 4, 5, 6, 7, 8
VTS_01 :
Play Length: 00:00:10
Video: PAL 4:3 (720x576) VBR
VTS_02 :
Play Length: 01:41:32
Video: PAL 4:3 (720x576) VBR
Audio:
Russian, AC3, 3/2 (L,C,R,SL,SR)+LFE ch, 448 kbps, Delay 480 mSec
Russian, AC3, 1/0 (C) ch, 96 kbps, Delay 480 mSec
Espanol, AC3, 3/2 (L,C,R,SL,SR)+LFE ch, 448 kbps, Delay 480 mSec
Subtitles:
Russian
English
Francais
Deutsch
Espanol
Italiano
VTS_03 :
Play Length: 00:06:26
Video: PAL 4:3 (720x576) VBR
Audio:
Russian, AC3, 1/0 (C) ch, 128 kbps, Delay 0 mSec
Subtitles:
Russian
English
Francais
Deutsch
Espanol
Italiano
VTS_04 :
Play Length: 00:02:30
Video: PAL 4:3 (720x576) VBR
Audio:
Not specified, AC3, 3/2 (L,C,R,SL,SR)+LFE ch, 448 kbps, Delay 0 mSec

MediaInfo

Общее
Полное имя: F:\Дон Кихот DVD-9\VIDEO_TS\VTS_02_1.VOB
Формат : MPEG-PS
Размер файла : 1024 Мбайт
Продолжительность : 19 м.
Общий поток : 7213 Кбит/сек
Видео
Идентификатор : 224 (0xE0)
Формат : MPEG Video
Версия формата : Version 2
Профиль формата : Main@Main
Параметр BVOP формата : Да
Параметр матрицы формата : Выборочная
Параметр GOP формата : M=2, N=4
Продолжительность : 19 м.
Битрейт : 6078 Кбит/сек
Ширина : 720 пикселей
Высота : 576 пикселей
Соотношение сторон : 4:3
Частота кадров : 25,000 кадров/сек
Стандарт вещания : PAL
Цветовое пространство : YUV
Субдискретизация насыщенности : 4:2:0
Битовая глубина : 8 бит
Метод сжатия : С потерями
Бит/(Пиксели*Кадры) : 0.586
Временной код первого кадра : 00:00:00:00
Оригинал временного кода : Group of pictures header
Размер потока : 863 Мбайт (84%)
Основные цвета : BT.601 PAL
Характеристики трансфера : BT.470 System B, BT.470 System G
Коэффициенты матрицы : BT.601
Аудио #1
Идентификатор : 189 (0xBD)-128 (0x80)
Формат : AC-3
Формат/Информация : Audio Coding 3
Расширение режима : CM (complete main)
Параметр Endianness формата : Big
Режим смешивания : DVD-Video
Продолжительность : 19 м.
Вид битрейта : Постоянный
Битрейт : 448 Кбит/сек
Каналы : 6 каналов
Расположение каналов : Front: L C R, Side: L R, LFE
Частота : 48,0 КГц
Битовая глубина : 16 бит
Метод сжатия : С потерями
Задержка видео : 480 мс.
Размер потока : 63,5 Мбайт (6%)
Аудио #2
Идентификатор : 189 (0xBD)-129 (0x81)
Формат : AC-3
Формат/Информация : Audio Coding 3
Расширение режима : CM (complete main)
Параметр Endianness формата : Big
Режим смешивания : DVD-Video
Продолжительность : 19 м.
Вид битрейта : Постоянный
Битрейт : 96,0 Кбит/сек
Каналы : 1 канал
Расположение каналов : Front: C
Частота : 48,0 КГц
Битовая глубина : 16 бит
Метод сжатия : С потерями
Задержка видео : 480 мс.
Размер потока : 13,6 Мбайт (1%)
Аудио #3
Идентификатор : 189 (0xBD)-130 (0x82)
Формат : AC-3
Формат/Информация : Audio Coding 3
Расширение режима : CM (complete main)
Параметр Endianness формата : Big
Режим смешивания : DVD-Video
Продолжительность : 19 м.
Вид битрейта : Постоянный
Битрейт : 448 Кбит/сек
Каналы : 6 каналов
Расположение каналов : Front: L C R, Side: L R, LFE
Частота : 48,0 КГц
Битовая глубина : 16 бит
Метод сжатия : С потерями
Задержка видео : 480 мс.
Размер потока : 63,5 Мбайт (6%)
Текст #1
Идентификатор : 189 (0xBD)-33 (0x21)
Формат : RLE
Формат/Информация : Run-length encoding
Режим смешивания : DVD-Video
Продолжительность : 19 м.
Задержка видео : 880 мс.
Текст #2
Идентификатор : 189 (0xBD)-34 (0x22)
Формат : RLE
Формат/Информация : Run-length encoding
Режим смешивания : DVD-Video
Продолжительность : 19 м.
Задержка видео : 880 мс.
Текст #3
Идентификатор : 189 (0xBD)-35 (0x23)
Формат : RLE
Формат/Информация : Run-length encoding
Режим смешивания : DVD-Video
Продолжительность : 19 м.
Задержка видео : 880 мс.
Текст #4
Идентификатор : 189 (0xBD)-36 (0x24)
Формат : RLE
Формат/Информация : Run-length encoding
Режим смешивания : DVD-Video
Продолжительность : 19 м.
Задержка видео : 880 мс.
Текст #5
Идентификатор : 189 (0xBD)-37 (0x25)
Формат : RLE
Формат/Информация : Run-length encoding
Режим смешивания : DVD-Video
Продолжительность : 19 м.
Задержка видео : 880 мс.
Текст #6
Идентификатор : 189 (0xBD)-32 (0x20)
Формат : RLE
Формат/Информация : Run-length encoding
Режим смешивания : DVD-Video

Скриншоты меню


Скриншоты фильма

Скриншоты доп. материалов

Полиграфия

Релиз:
Уважаемые пользователи!
Найдите пару минут поблагодарить релизера и высказаться в топике раздачи.Ваше мнение - бальзам для раздающего и пища для ума остальным
пользователям.
Мои раздачи
[Профиль] [ЛС]
Кто просматривает тему:

Показать сообщения:    

Текущее время: Сегодня 07:06

Часовой пояс: GMT



Вы не можете начинать темы
Вы не можете отвечать на сообщения
Вы не можете редактировать свои сообщения
Вы не можете удалять свои сообщения
Вы не можете голосовать в опросах
Вы не можете прикреплять файлы к сообщениям
Вы не можете скачивать файлы