Донки Панч / Морская прогулка / Donkey punch (Оливер Блэкберн / Oliver Blackburn) [2008, Великобритания, триллер, DVDRip-AVC] MVO + Original Eng

 
Автор Сообщение

TorrentFilm ®

Пол:

Стаж: 2 года

Сообщений: 7741



Награды: Нет

Торрент-статистика

Создавать темы 17-Окт-2015 10:14

[Цитировать]

Донки Панч / Морская прогулка / Donkey punch
-Страна: Великобритания
Жанр: триллер
Год выпуска: 2008
Продолжительность: 01:35:08-Перевод: Профессиональный (многоголосый закадровый)
Cубтитры: нет
Оригинальная аудиодорожка: английский-Режиссер: Оливер Блэкберн / Oliver Blackburn-В ролях: Роберт Болтер, Шан Брекин, Том Берк, Никола Бёрли, Джулиан Моррис, Джей Тейлор, Джейми Уинстон-Описание: Трое девушек, приехавших на Ибицу поразвлечься, знакомятся в ночном клубе с парнями, чей уровень дохода заметно превышает их собственный. Приняв приглашение отдохнуть на борту роскошной яхты, одна из них, после обильного возлияния, погибает. Начавшиеся споры о том, что делать дальше, приводят к безжалостной борьбе за выживание.-Рейтинг R - Детям до 17 лет обязательно присутствие родителей
Рейтинг R получают фильмы, в содержании которых обязательно содержится материал, предназначенный только для взрослой аудитории. Родителям рекомендуется хорошо подумать, прежде чем посмотреть такой фильм вместе со своими детьми.
Фильм, получивший рейтинг R, скорее всего содержит сексуальные сцены, эпизоды с употреблением наркотиков, нецензурную брань, фрагменты с насилием и т.д.
-Сэмпл | Kinopoisk | Imdb-Качество видео: DVDRip-AVC [DVD 9]
Формат видео: MKV-Видео: AVC High@L4.1 / 720x552@1024x552 / 2635 Kbps / 25.000 fps
Аудио 1: Dolby AC3 (2ch), 192.00 kbps, 48 KHz | Russian | лицензия
Аудио 2: Dolby AC3 (6 ch), 448kbps, 48 KHz | English | Original

MediaInfo

C:\Морская прогулка.2008.DVDRip(AVC).mkv
General
Unique ID : 198211266571306247318397196594927854051 (0x951E19F2C2548F2684D5FE2EFF4361E3)
Complete name : C:\Морская прогулка.2008.DVDRip(AVC).mkv
Format : Matroska
Format version : Version 2
File size : 2.18 GiB
Duration : 1h 35mn
Overall bit rate : 3 275 Kbps
Encoded date : UTC 2015-10-14 15:19:04
Writing application : mkvmerge v5.0.1 ('Es ist Sommer') built on Oct 30 2011 21:53:49
Writing library : libebml v1.2.2 + libmatroska v1.3.0
Video #1
ID : 1
Format : AVC
Format/Info : Advanced Video Codec
Format profile : High@L4.1
Format settings, CABAC : Yes
Format settings, ReFrames : 10 frames
Muxing mode : Header stripping
Codec ID : V_MPEG4/ISO/AVC
Duration : 1h 35mn
Bit rate : 2 635 Kbps
Width : 720 pixels
Height : 552 pixels
Display aspect ratio : 1.85:1
Frame rate mode : Constant
Frame rate : 25.000 fps
Color space : YUV
Chroma subsampling : 4:2:0
Bit depth : 8 bits
Scan type : Progressive
Bits/(Pixel*Frame) : 0.265
Stream size : 1.71 GiB (78%)
Writing library : x264 core 146 r2538 121396c
Encoding settings : cabac=1 / ref=10 / deblock=1:-3:-3 / analyse=0x3:0x133 / me=umh / subme=10 / psy=1 / psy_rd=1.00:0.10 / mixed_ref=1 / me_range=48 / chroma_me=1 / trellis=2 / 8x8dct=1 / cqm=0 / deadzone=21,11 / fast_pskip=0 / chroma_qp_offset=-3 / threads=6 / lookahead_threads=1 / sliced_threads=0 / nr=0 / decimate=1 / interlaced=0 / bluray_compat=0 / constrained_intra=0 / bframes=5 / b_pyramid=2 / b_adapt=2 / b_bias=0 / direct=3 / weightb=1 / open_gop=0 / weightp=2 / keyint=250 / keyint_min=23 / scenecut=40 / intra_refresh=0 / rc_lookahead=40 / rc=2pass / mbtree=1 / bitrate=2635 / ratetol=1.0 / qcomp=0.60 / qpmin=10 / qpmax=51 / qpstep=4 / cplxblur=20.0 / qblur=0.5 / vbv_maxrate=62500 / vbv_bufsize=78125 / nal_hrd=none / filler=0 / ip_ratio=1.40 / aq=1:1.00
Default : Yes
Forced : No
Audio #2
ID : 2
Format : AC-3
Format/Info : Audio Coding 3
Mode extension : CM (complete main)
Format settings, Endianness : Big
Muxing mode : Header stripping
Codec ID : A_AC3
Duration : 1h 35mn
Bit rate mode : Constant
Bit rate : 192 Kbps
Channel(s) : 2 channels
Channel positions : Front: L R
Sampling rate : 48.0 KHz
Bit depth : 16 bits
Compression mode : Lossy
Delay relative to video : 2ms
Stream size : 131 MiB (6%)
Title : MVO
Language : Russian
Default : Yes
Forced : No
Audio #3
ID : 3
Format : AC-3
Format/Info : Audio Coding 3
Mode extension : CM (complete main)
Format settings, Endianness : Big
Muxing mode : Header stripping
Codec ID : A_AC3
Duration : 1h 35mn
Bit rate mode : Constant
Bit rate : 448 Kbps
Channel(s) : 6 channels
Channel positions : Front: L C R, Side: L R, LFE
Sampling rate : 48.0 KHz
Bit depth : 16 bits
Compression mode : Lossy
Stream size : 305 MiB (14%)
Title : Original
Language : English
Default : No
Forced : No

Скриншот c названием фильма

Скриншоты


[Профиль] [ЛС]

Создавать темы 12-Июн-2016 08:50 (спустя 7 месяцев 25 дней)

Топик был перенесен из форума Фильмы 2011 года в форум Фильмы 2006-2008 года
Russian Mafia
 
Показать сообщения:    

Текущее время: Сегодня 19:38

Часовой пояс: GMT



Вы не можете начинать темы
Вы не можете отвечать на сообщения
Вы не можете редактировать свои сообщения
Вы не можете удалять свои сообщения
Вы не можете голосовать в опросах
Вы не можете прикреплять файлы к сообщениям
Вы не можете скачивать файлы