Донбасс в Огне (Наталья Родионова) [2015, Документальный, HDTV 1080i]

 
Автор Сообщение

TorrentFilm ®

Пол:

Стаж: 2 года

Сообщений: 7741



Награды: Нет

Торрент-статистика

Создавать темы 14-Май-2015 00:04

[Цитировать]

Донбасс в Огне
Дата выхода: 11/05/2015
Страна: Россия
Студия: Первый Канал HD
Жанр: Документальный
Продолжительность: 00:52:17
Перевод: Не требуется
Автор: Павел Краснов
Режиссер: Наталья Родионова
Описание: Интервью с главой ДНР Александром Захарченко и рассказ о том, как мирные люди выживают в охваченном войной Донбассе и как они пытаются наладить мирную жизнь. Фильм приурочен к годовщине референдума в ДНР и ЛНР. В нем – интервью с главой ДНР Александром Захарченко и рассказ о надеждах жителей Донецкой области после референдума, о начале военных действий, а также о том, как мирные люди выживают в охваченном войной Донбассе и как они пытаются наладить мирную жизнь.
Тип релиза: HDTV 1080i
Контейнер: TS
Видео: PEG4 Video (H264) 1920x1080 25.00fps 9921kbps
Аудио: MPEG Audio 48000Hz stereo 192kbps

MediaInfo

ОбщееИдентификатор : 1 (0x1)Полное имя : *:\Донбасс в Огне.HDTV.1080i.tsФормат : MPEG-TSРазмер файла : 3,89 ГбайтПродолжительность : 52 м.Режим общего битрейта : ПеременныйОбщий поток : 10,6 Мбит/сек
ВидеоИдентификатор : 1603 (0x643)Идентификатор меню : 1 (0x1)Формат : AVCФормат/Информация : Advanced Video CodecПрофиль формата : High@L4Параметр CABAC формата : ДаПараметр ReFrames формата : 3 кадраИдентификатор кодека : 27Продолжительность : 52 м.Битрейт : 9921 Кбит/секШирина : 1920 пикселейВысота : 1080 пикселейСоотношение сторон : 16:9Частота кадров : 25,000 кадров/секСтандарт вещания : ComponentЦветовое пространство : YUVСубдискретизация насыщенности : 4:2:0Битовая глубина : 8 битТип развёртки : ЧересстрочнаяПорядок развёртки : Верхнее поле первоеБит/(Пиксели*Кадры) : 0.191Размер потока : 3,62 Гбайт (93%)Цветовой диапазон : LimitedОсновные цвета : BT.709Характеристики трансфера : BT.709Коэффициенты матрицы : BT.709
АудиоИдентификатор : 2603 (0xA2B)Идентификатор меню : 1 (0x1)Формат : MPEG AudioВерсия формата : Version 1Профиль формата : Layer 2Идентификатор кодека : 3Продолжительность : 52 м.Вид битрейта : ПостоянныйБитрейт : 192 Кбит/секКаналы : 2 каналаЧастота : 48,0 КГцМетод сжатия : С потерямиРазмер потока : 71,8 Мбайт (2%)Язык : Russian

Скриншоты

[Профиль] [ЛС]
Показать сообщения:    

Текущее время: Сегодня 14:26

Часовой пояс: GMT



Вы не можете начинать темы
Вы не можете отвечать на сообщения
Вы не можете редактировать свои сообщения
Вы не можете удалять свои сообщения
Вы не можете голосовать в опросах
Вы не можете прикреплять файлы к сообщениям
Вы не можете скачивать файлы