Донбасс в Огне (Наталья Родионова) [2015, Документальный, HDTV 720p]

 
Автор Сообщение

TorrentFilm ®

Пол:

Стаж: 2 года

Сообщений: 7741



Награды: Нет

Торрент-статистика

Создавать темы 12-Май-2015 00:04

[Цитировать]

Донбасс в Огне- Год выпуска: 2015
Страна: Россия
Студия: Первый Канал HD
Жанр: Документальный
Продолжительность: 0:52:25
Автор: Павел Краснов
Режиссер: Наталья Родионова-Описание: Фильм приурочен к годовщине референдума в ДНР и ЛНР. В нем – интервью с главой ДНР Александром Захарченко и рассказ о надеждах жителей Донецкой области после референдума, о начале военных действий, а также о том, как мирные люди выживают в охваченном войной Донбассе и как они пытаются наладить мирную жизнь.-Автор рипа: lrn
Автор записи: GeneralFilm
Сэмпл: sendfile-Тип релиза: HDTV 720p
Контейнер: MKV
Видео: 1280x720 (16:9), 25,000 fps, H264, ~4000 kbps avg, ~0.174 bit/pixel
Аудио: 48 kHz, AC3 Dolby Digital, 3/2 (L,C,R,l,r) + LFE ch, ~384.00 kbps avg-

MediaInfo

GeneralUnique ID : 171645927884740018140664416347705565078 (0x8121CDA0C74C0FE38A24F1A559E3DF96)Complete name : E:\uTorrent.Temp\Temp\Donbass.v.Ogne.2015.HDTV.720p.x264-lrn.mkvFormat : MatroskaFormat version : Version 4 / Version 2File size : 1.61 GiBDuration : 52mn 25sOverall bit rate : 4 385 KbpsMovie name : Donbass.v.Ogne.2015.HDTV.720p.x264-lrnEncoded date : UTC 2010-02-22 21:41:31Writing application : mkvmerge v5.9.0 ('On The Loose') built on Dec 9 2012 15:37:01Writing library : libebml v1.3.0 + libmatroska v1.4.0DURATION : 00:52:25.600000000NUMBER_OF_FRAMES : 78640NUMBER_OF_BYTES : 1572624469_STATISTICS_WRITING_APP : mkvmerge v7.7.0 ('Six Voices') 32bit built on Feb 28 2015 23:23:00_STATISTICS_WRITING_DATE_UT : 2015-05-11 19:29:43_STATISTICS_TAGS : BPS DURATION NUMBER_OF_FRAMES NUMBER_OF_BYTES
VideoID : 1Format : AVCFormat/Info : Advanced Video CodecFormat profile : High@L4.1Format settings, CABAC : YesFormat settings, ReFrames : 8 framesCodec ID : V_MPEG4/ISO/AVCDuration : 52mn 25sBit rate : 4 000 KbpsWidth : 1 280 pixelsHeight : 720 pixelsDisplay aspect ratio : 16:9Frame rate mode : ConstantFrame rate : 25.000 fpsColor space : YUVChroma subsampling : 4:2:0Bit depth : 8 bitsScan type : ProgressiveBits/(Pixel*Frame) : 0.174Stream size : 1.43 GiB (89%)Writing library : x264 core 146 r2538 121396cEncoding settings : cabac=1 / ref=8 / deblock=1:-3:-3 / analyse=0x3:0x133 / me=umh / subme=9 / psy=1 / psy_rd=1.00:0.00 / mixed_ref=1 / me_range=32 / chroma_me=1 / trellis=2 / 8x8dct=1 / cqm=0 / deadzone=21,11 / fast_pskip=1 / chroma_qp_offset=-2 / threads=12 / lookahead_threads=2 / sliced_threads=0 / nr=0 / decimate=1 / interlaced=0 / bluray_compat=0 / constrained_intra=0 / bframes=8 / b_pyramid=2 / b_adapt=2 / b_bias=0 / direct=3 / weightb=1 / open_gop=0 / weightp=2 / keyint=250 / keyint_min=25 / scenecut=40 / intra_refresh=0 / rc_lookahead=50 / rc=2pass / mbtree=1 / bitrate=4000 / ratetol=1.0 / qcomp=0.60 / qpmin=0 / qpmax=69 / qpstep=4 / cplxblur=20.0 / qblur=0.5 / vbv_maxrate=62500 / vbv_bufsize=78125 / nal_hrd=none / filler=0 / ip_ratio=1.40 / aq=1:1.00Default : YesForced : No
AudioID : 2Format : AC-3Format/Info : Audio Coding 3Mode extension : CM (complete main)Format settings, Endianness : BigCodec ID : A_AC3Duration : 52mn 25sBit rate mode : ConstantBit rate : 384 KbpsChannel(s) : 6 channelsChannel positions : Front: L C R, Side: L R, LFESampling rate : 48.0 KHzCompression mode : LossyStream size : 144 MiB (9%)Language : RussianDefault : YesForced : No

x264 log

raw [info]: 1280x720p 1:1 @ 25/1 fps (cfr)x264 [info]: using SAR=1/1x264 [info]: using cpu capabilities: MMX2 SSE2Fast SSSE3 SSE4.2 AVXx264 [info]: profile High, level 4.1x264 [info]: frame I:598 Avg QP:16.49 size:112859x264 [info]: frame P:23223 Avg QP:19.86 size: 41004x264 [info]: frame B:54819 Avg QP:22.50 size: 10086x264 [info]: consecutive B-frames: 5.3% 7.7% 10.4% 56.1% 8.8% 9.5% 1.1% 0.9% 0.2%x264 [info]: mb I I16..4: 6.4% 76.0% 17.6%x264 [info]: mb P I16..4: 2.9% 10.7% 1.3% P16..4: 45.6% 19.7% 13.2% 0.6% 0.2% skip: 5.8%x264 [info]: mb B I16..4: 0.2% 0.8% 0.1% B16..8: 38.7% 8.1% 1.8% direct: 6.9% skip:43.2% L0:37.6% L1:46.0% BI:16.5%x264 [info]: 8x8 transform intra:71.9% inter:64.2%x264 [info]: direct mvs spatial:98.7% temporal:1.3%x264 [info]: coded y,uvDC,uvAC intra: 69.2% 70.4% 27.6% inter: 24.7% 26.7% 1.0%x264 [info]: i16 v,h,dc,p: 25% 22% 8% 45%x264 [info]: i8 v,h,dc,ddl,ddr,vr,hd,vl,hu: 11% 11% 7% 8% 12% 12% 13% 11% 13%x264 [info]: i4 v,h,dc,ddl,ddr,vr,hd,vl,hu: 13% 11% 4% 8% 13% 13% 13% 11% 13%x264 [info]: i8c dc,h,v,p: 34% 28% 20% 18%x264 [info]: Weighted P-Frames: Y:7.4% UV:2.4%x264 [info]: ref P L0: 56.4% 15.5% 14.7% 4.1% 3.2% 2.3% 2.1% 1.4% 0.2% 0.0%x264 [info]: ref B L0: 87.2% 7.8% 2.4% 1.1% 0.8% 0.5% 0.3%x264 [info]: ref B L1: 96.8% 3.2%x264 [info]: kb/s:3999.55encoded 78640 frames, 14.23 fps, 3999.55 kb/s

Скриншоты

-
[Профиль] [ЛС]
Показать сообщения:    

Текущее время: Сегодня 13:02

Часовой пояс: GMT



Вы не можете начинать темы
Вы не можете отвечать на сообщения
Вы не можете редактировать свои сообщения
Вы не можете удалять свои сообщения
Вы не можете голосовать в опросах
Вы не можете прикреплять файлы к сообщениям
Вы не можете скачивать файлы