Дом / Home / At the Devil\'s Door (Николас МакКарти / Nicholas McCarthy) [2014, США, ужасы, WEB-DLRip] VO (Хихидок)

 
Автор Сообщение

reversefile ®

Пол:

Стаж: 4 года 5 месяцев

Сообщений: 842

Откуда: ReverseFile.org



Награды: Нет

Торрент-статистика

Создавать темы 13-Авг-2014 08:54

[Цитировать]

Дом / Home / At the Devil's Door
Страна: США
Жанр: ужасы
Год выпуска: 2014
Продолжительность: 01:33:03
Перевод: Одноголосый закадровый Хихидок
Cубтитры: нет
Оригинальная аудиодорожка: нет
Режиссер: Николас МакКарти / Nicholas McCarthy
В ролях: Ная Ривера, Ава Акрес, Эршад Аслам, Роб Браунштейн, Тара Бак, Лаура Кай Чен, Ассаф Коэн, Ник Эверсман, Кент Фалкон, Каталина Сандино Морено
Описание: Молодая девушка расследует череду странных происшествий в доме. Оказывается, предыдущий арендатор совершенно случайно вызвал дьявола…
Доп. информация:

Сэмпл: http://multi-up.com/991929
Качество видео: WEB-DLRip
Формат видео: AVI
Видео: 640x272 (2.35:1), 23.976 fps, XviD MPEG-4 ~911 kbps avg, 0.22 bit/pixel
Аудио: 44.100 kHz, MPEG Layer 3, 2 ch, ~192.00 kbps avg

MediaInfo

General
Complete name : C:\Users\Вика\Desktop\At.the.Devil's.Door.2014.WEBDLRip.avi
Format : AVI
Format/Info : Audio Video Interleave
File size : 740 MiB
Duration : 1h 33mn
Overall bit rate : 1 113 Kbps
Writing application : VirtualDubMod 1.5.10.3 (build 2550/release)
Writing library : VirtualDubMod build 2550/release
Video
ID : 0
Format : MPEG-4 Visual
Format profile : Advanced Simple@L5
Format settings, BVOP : Yes
Format settings, QPel : No
Format settings, GMC : No warppoints
Format settings, Matrix : Default (H.263)
Codec ID : XVID
Codec ID/Hint : XviD
Duration : 1h 33mn
Bit rate : 911 Kbps
Width : 640 pixels
Height : 272 pixels
Display aspect ratio : 2.35:1
Frame rate : 23.976 fps
Color space : YUV
Chroma subsampling : 4:2:0
Bit depth : 8 bits
Scan type : Progressive
Compression mode : Lossy
Bits/(Pixel*Frame) : 0.218
Stream size : 606 MiB (82%)
Writing library : XviD 65
Audio
ID : 1
Format : MPEG Audio
Format version : Version 1
Format profile : Layer 3
Codec ID : 55
Codec ID/Hint : MP3
Duration : 1h 33mn
Bit rate mode : Constant
Bit rate : 192 Kbps
Channel count : 2 channels
Sampling rate : 44.1 KHz
Compression mode : Lossy
Stream size : 128 MiB (17%)
Alignment : Split accross interleaves
Interleave, duration : 42 ms (1.00 video frame)
Interleave, preload duration : 500 ms

Скриншоты

[Профиль] [ЛС]
Показать сообщения:    

Текущее время: Сегодня 22:41

Часовой пояс: GMT



Вы не можете начинать темы
Вы не можете отвечать на сообщения
Вы не можете редактировать свои сообщения
Вы не можете удалять свои сообщения
Вы не можете голосовать в опросах
Вы не можете прикреплять файлы к сообщениям
Вы не можете скачивать файлы