Дом (2011) BDRip 1080p

 
Автор Сообщение

Russian Mafia ®

Пол:

Стаж: 1 год 8 месяцев

Сообщений: 4256



Награды: 10 (Подробнее)

За внесенный вклад в развитие сайта (Количество: 1) Mega Seeder 5 (Количество: 1) Top Releaser 2 (Количество: 1)
Торрент-статистика

Создавать темы 13-Окт-2015 17:51

[Цитировать]

Информация о фильме
Название: Дом
Год выхода: 2011
Жанр: драма, криминал
Режиссер: Олег Погодин
В ролях: Сергей Гармаш, Богдан Ступка, Лариса Малеванная, Владимир Епифанцев, Екатерина Редникова, Глеб Подгородинский, Игорь Савочкин, Александра Бледная, Евгения Дмитриева, Александр Назаров
О фильме: В большом доме, посреди донских степей, живёт семейство Шамановых. Всё есть в этом доме, — кроме покоя, любви и взаимопонимания. Отцы конфликтуют с детьми, дети с отцами и друг с другом. Старший сын, Виктор, возвращается в отчий дом после 25-летнего отсутствия. Пока еще он не знает, что по пятам за ним идёт группа профессиональных убийц…

Выпущено: Централ Партнершип
Продолжительность: 02:12:27
Перевод: Оригинал
Файл
Кодек: x264
Качество: BDRip (источник: Blu-ray Disc)
Видео: 1920x816 (2,35:1), 23.976 fps, 4086 kbps
Звук: 48 kHz, AC-3, 6 ch, 640 kbps
Скачать: сэмпл
Скриншоты

MI

Общее
Уникальный идентификатор : 198085419678076105116428243006745254382 (0x9505DD37A73E8DFFB9269B420B8899EE)
Полное имя : Dom.2011.BDRip.1080p.Rus.mkv
Формат : Matroska
Версия формата : Version 2
Размер файла : 4,37 Гбайт
Продолжительность : 2 ч. 12 м.
Общий поток : 4727 Кбит/сек
Название фильма : Дом (2011)
Дата кодирования : UTC 2012-02-10 13:52:25
Программа кодирования : mkvmerge v4.0.0 ('The Stars were mine') сборка от Jun 6 2010 16:18:42
Библиотека кодирования : libebml v1.0.0 + libmatroska v1.0.0
Видео
Идентификатор : 1
Формат : AVC
Формат/Информация : Advanced Video Codec
Профиль формата : High@L4.1
Параметр CABAC формата : Да
Параметр ReFrames формата : 5 кадров
Идентификатор кодека : V_MPEG4/ISO/AVC
Продолжительность : 2 ч. 12 м.
Битрейт : 4086 Кбит/сек
Ширина : 1920 пикселей
Высота : 816 пикселей
Соотношение сторон : 2,35:1
Частота кадров : 23,976 кадра/сек
Цветовое пространство : YUV
Субдискретизация насыщенности : 4:2:0
Битовая глубина : 8 бит
Тип развёртки : Прогрессивная
Бит/(Пиксели*Кадры) : 0.109
Размер потока : 3,69 Гбайт (84%)
Заголовок : Release by AlexKa
Библиотека кодирования : x264 core 120 r2164 da19765
Настройки программы : cabac=1 / ref=5 / deblock=1:0:0 / analyse=0x3:0x133 / me=umh / subme=10 / psy=1 / psy_rd=1.00:0.10 / mixed_ref=1 / me_range=32 / chroma_me=1 / trellis=2 / 8x8dct=1 / cqm=0 / deadzone=21,11 / fast_pskip=0 / chroma_qp_offset=-3 / threads=12 / sliced_threads=0 / nr=0 / decimate=0 / interlaced=0 / bluray_compat=0 / constrained_intra=0 / bframes=5 / b_pyramid=2 / b_adapt=2 / b_bias=0 / direct=3 / weightb=1 / open_gop=0 / weightp=2 / keyint=240 / keyint_min=24 / scenecut=40 / intra_refresh=0 / rc_lookahead=60 / rc=2pass / mbtree=1 / bitrate=4086 / ratetol=1.0 / qcomp=0.60 / qpmin=0 / qpmax=69 / qpstep=4 / cplxblur=20.0 / qblur=0.5 / ip_ratio=1.40 / aq=1:1.00
Язык : Russian
Аудио
Идентификатор : 2
Формат : AC-3
Формат/Информация : Audio Coding 3
Расширение режима : CM (complete main)
Идентификатор кодека : A_AC3
Продолжительность : 2 ч. 12 м.
Вид битрейта : Постоянный
Битрейт : 640 Кбит/сек
Каналы : 6 каналов
Расположение каналов : Front: L C R, Side: L R, LFE
Частота : 48,0 КГц
Битовая глубина : 16 бит
Метод сжатия : С потерями
Размер потока : 606 Мбайт (14%)
Язык : Russian
Меню
00:00:00.000 : :Chapter 01
00:01:11.404 : :Chapter 02
00:17:04.857 : :Chapter 03
00:31:51.659 : :Chapter 04
00:49:55.450 : :Chapter 05
01:06:02.416 : :Chapter 06
01:17:44.993 : :Chapter 07
01:35:32.143 : :Chapter 08
01:49:20.554 : :Chapter 09
[Профиль] [ЛС]
Показать сообщения:    

Текущее время: Сегодня 18:32

Часовой пояс: GMT



Вы не можете начинать темы
Вы не можете отвечать на сообщения
Вы не можете редактировать свои сообщения
Вы не можете удалять свои сообщения
Вы не можете голосовать в опросах
Вы не можете прикреплять файлы к сообщениям
Вы не можете скачивать файлы