Дом (Олег Погодин) [2011, Россия, драма, криминал, BDRip 1080p]

 
Автор Сообщение

painkiller ®

Стаж: 2 года 3 месяца

Сообщений: 582



Награды: Нет

Торрент-статистика

Создавать темы 15-Авг-2014 10:18

[Цитировать]

Дом Страна: Россия
Жанр: драма, криминал
Год выпуска: 2011
Продолжительность: 02:12:27-Перевод: Не требуется
Cубтитры: нет
Оригинальная аудиодорожка: русский-Режиссер: Олег Погодин
В ролях: Сергей Гармаш, Богдан Ступка, Лариса Малеванная, Владимир Епифанцев, Екатерина Редникова, Глеб Подгородинский, Игорь Савочкин, Александра Бледная, Евгения Дмитриева, Александр Назаров, Кирилл Полухин.-Описание: В большом доме, посреди донских степей, живёт семейство Шамановых. Всё есть в этом доме, - кроме покоя, любви и взаимопонимания. Отцы конфликтуют с детьми, дети с отцами и друг с другом. Старший сын, Виктор, возвращается в отчий дом после 25-летнего отсутствия. Пока еще он не знает, что по пятам за ним идёт группа профессиональных убийц...
-Сэмпл-Релиз: madoff
Тип релиза: BDRip 1080p
Контейнер: MKV
Видео: AVC, 1920x802, 23,976 fps, 11.5 Mbps
Аудио: AC3, 48 kHz, 6 ch, ~640.00 kbps

MediaInfo

Формат : Matroska
Версия формата : Version 2
Размер файла : 11,2 Гбайт
Продолжительность : 2 ч. 12 м.
Общий поток : 12,1 Мбит/сек
Дата кодирования : UTC 2013-12-15 09:29:10
Программа кодирования : mkvmerge v5.7.0 ('The Whirlwind') built on Jul 8 2012 20:08:51
Библиотека кодирования : libebml v1.2.3 + libmatroska v1.3.0
Видео
Идентификатор : 1
Формат : AVC
Формат/Информация : Advanced Video Codec
Профиль формата : High@L4.1
Параметр CABAC формата : Да
Параметр ReFrames формата : 5 кадров
Идентификатор кодека : V_MPEG4/ISO/AVC
Продолжительность : 2 ч. 12 м.
Битрейт : 11,5 Мбит/сек
Ширина : 1920 пикселей
Высота : 802 пикселя
Соотношение сторон : 2,40:1
Режим частоты кадров : Постоянный
Частота кадров : 23,976 кадра/сек
Цветовое пространство : YUV
Субдискретизация насыщенности : 4:2:0
Битовая глубина : 8 бит
Тип развёртки : Прогрессивная
Бит/(Пиксели*Кадры) : 0.311
Размер потока : 10,4 Гбайт (93%)
Библиотека кодирования : x264 core 130 r2273 b3065e6
Настройки программы : cabac=1 / ref=5 / deblock=1:-3:-3 / analyse=0x3:0x113 / me=umh / subme=11 / psy=1 / psy_rd=1.05:0.00 / mixed_ref=1 / me_range=48 / chroma_me=1 / trellis=2 / 8x8dct=1 / cqm=0 / deadzone=21,11 / fast_pskip=0 / chroma_qp_offset=-2 / threads=12 / lookahead_threads=2 / sliced_threads=0 / nr=0 / decimate=1 / interlaced=0 / bluray_compat=0 / constrained_intra=0 / bframes=9 / b_pyramid=2 / b_adapt=2 / b_bias=0 / direct=3 / weightb=1 / open_gop=0 / weightp=2 / keyint=250 / keyint_min=23 / scenecut=40 / intra_refresh=0 / rc_lookahead=40 / rc=2pass / mbtree=0 / bitrate=11500 / ratetol=1.0 / qcomp=0.60 / qpmin=0 / qpmax=69 / qpstep=4 / cplxblur=20.0 / qblur=0.5 / vbv_maxrate=62500 / vbv_bufsize=78125 / nal_hrd=none / ip_ratio=1.40 / pb_ratio=1.30 / aq=1:0.80
Язык : Russian
Default : Да
Forced : Нет
Аудио
Идентификатор : 2
Формат : AC-3
Формат/Информация : Audio Coding 3
Расширение режима : CM (complete main)
Параметр Endianness формата : Big
Идентификатор кодека : A_AC3
Продолжительность : 2 ч. 12 м.
Вид битрейта : Постоянный
Битрейт : 640 Кбит/сек
Каналы : 6 каналов
Расположение каналов : Front: L C R, Side: L R, LFE
Частота : 48,0 КГц
Битовая глубина : 16 бит
Метод сжатия : С потерями
Размер потока : 606 Мбайт (5%)
Язык : Russian
Default : Да
Forced : Нет
Меню
00:00:00.000 : :00:00:00.000
00:01:11.405 : :00:01:11.405
00:17:04.857 : :00:17:04.857
00:31:51.660 : :00:31:51.660
00:49:55.451 : :00:49:55.451
01:06:02.417 : :01:06:02.417
01:17:44.994 : :01:17:44.994
01:35:32.143 : :01:35:32.143
01:49:20.554 : :01:49:20.554

Скриншоты

[Профиль] [ЛС]
Показать сообщения:    

Текущее время: Сегодня 08:02

Часовой пояс: GMT



Вы не можете начинать темы
Вы не можете отвечать на сообщения
Вы не можете редактировать свои сообщения
Вы не можете удалять свои сообщения
Вы не можете голосовать в опросах
Вы не можете прикреплять файлы к сообщениям
Вы не можете скачивать файлы