Дом / House (Стив Майнер) [1986 г., ужасы, фэнтези, комедия, DVDRip-AVC] [MVO, AVO]

 
Автор Сообщение

Bathory ®

Пол:

Стаж: 9 месяцев 1 день

Сообщений: 169



Награды: 3 (Подробнее)

За внесенный вклад в развитие сайта (Количество: 1) Друг (Количество: 1) Girls (Количество: 1)
Торрент-статистика

Создавать темы 28-Мар-2016 14:26

[Цитировать]

Дом / House-
Информация о фильме
Название: Дом
Оригинальное название: House
Год выхода: 1986
Жанр: ужасы, фэнтези, комедия
Режиссер: Стив Майнер
В ролях: Уильям Кэтт, Джордж Уэндт, Ричард Молл, Кэй Ленц, Мэри Стэвин, Майкл Инсайн, Эрик Сильвер, Марк Сильвер, Сьюзэн Френч, Алан Аутри
О фильме:
Молодой писатель Роджер Кобб испытал на собственной шкуре ужасы вьетнамской войны, но это было лишь началом выпавших на его долю испытаний: брак Роджера развалился, малолетний сын исчез, а кровавые кошмары боев продолжали являться Коббу чуть ли не каждую ночь.
Чтобы написать книгу о своих переживаниях, Роджер поселился в мрачном, старинном доме, что достался герою по наследству от тети. У дома — не самая лучшая репутация: его хозяйка была найдена повешенной у себя в комнате, и с тех пор по вечерам здесь раздаются странные звуки…

Страна: США
Студия: New World Pictures, Sean S. Cunningham Films
Продолжительность: 01:32:24
Перевод:
1. Профессиональный (многоголосый закадровый)
2. Авторский (одноголосый закадровый) [Володарский]
3. Авторский (одноголосый закадровый) [Визгунов]
4. Авторский (одноголосый закадровый) [Белов]
Файл
Кодек: AVC
Качество: DVDRip-AVC
Видео: 720x464@853x464, 2253 kbps, 23,976 fps, 0,281 Bits/(Pixel*Frame)
Звук:
1. AC3, 48 kHz, 6 ch, 448 kHz - RUS MVO (R5)
2. AC3, 48 kHz, 2 ch, 192 kHz - RUS AVO (Володарский)
3. AC3, 48 kHz, 2 ch, 192 kHz - RUS AVO (Визгунов)
4. AC3, 48 kHz, 2 ch, 192 kHz - RUS AVO (Белов)
Субтитры: Нет

MI

General
Unique ID : 198794890075974222841180118702778826889 (0x958E80CF04B028F4843694827CCD4089)
Complete name : G:\House_[torrents.ru]\VIDEO_TS\House.1986.DVDRip-AVC_by_Bathory.mkv
Format : Matroska
Format version : Version 4 / Version 2
File size : 2.18 GiB
Duration : 1h 32mn
Overall bit rate : 3 375 Kbps
Encoded date : UTC 2016-03-27 20:31:30
Writing application : mkvmerge v9.0.0 ('Power to progress') 64bit
Writing library : libebml v1.3.3 + libmatroska v1.4.4
DURATION : 01:32:23.168000000
NUMBER_OF_FRAMES : 173224
NUMBER_OF_BYTES : 155208704
_STATISTICS_WRITING_APP : mkvmerge v9.0.0 ('Power to progress') 64bit
_STATISTICS_WRITING_DATE_UTC : 2016-03-27 20:31:30
_STATISTICS_TAGS : BPS DURATION NUMBER_OF_FRAMES NUMBER_OF_BYTES
Video
ID : 1
Format : AVC
Format/Info : Advanced Video Codec
Format profile : High@L4.1
Format settings, CABAC : Yes
Format settings, ReFrames : 12 frames
Codec ID : V_MPEG4/ISO/AVC
Duration : 1h 32mn
Bit rate : 2 253 Kbps
Width : 720 pixels
Height : 464 pixels
Display aspect ratio : 1.85:1
Original display aspect ratio : 1.85:1
Frame rate mode : Constant
Frame rate : 23.976 fps
Color space : YUV
Chroma subsampling : 4:2:0
Bit depth : 8 bits
Scan type : Progressive
Bits/(Pixel*Frame) : 0.281
Stream size : 1.41 GiB (65%)
Writing library : x264 core 148 r2665 a01e339
Encoding settings : cabac=1 / ref=12 / deblock=1:-2:-2 / analyse=0x3:0x133 / me=umh / subme=11 / psy=1 / psy_rd=1.00:0.05 / mixed_ref=1 / me_range=32 / chroma_me=1 / trellis=2 / 8x8dct=1 / cqm=0 / deadzone=21,11 / fast_pskip=0 / chroma_qp_offset=-3 / threads=12 / lookahead_threads=3 / sliced_threads=0 / nr=0 / decimate=0 / interlaced=0 / bluray_compat=0 / constrained_intra=0 / bframes=16 / b_pyramid=2 / b_adapt=2 / b_bias=0 / direct=3 / weightb=1 / open_gop=0 / weightp=2 / keyint=240 / keyint_min=23 / scenecut=0 / intra_refresh=0 / rc_lookahead=60 / rc=2pass / mbtree=1 / bitrate=2253 / ratetol=1.0 / qcomp=0.70 / qpmin=0 / qpmax=69 / qpstep=4 / cplxblur=15.0 / qblur=0.5 / vbv_maxrate=62500 / vbv_bufsize=78125 / nal_hrd=none / filler=0 / ip_ratio=1.40 / aq=2:1.00
Default : Yes
Forced : No
Audio #1
ID : 2
Format : AC-3
Format/Info : Audio Coding 3
Mode extension : CM (complete main)
Format settings, Endianness : Big
Codec ID : A_AC3
Duration : 1h 32mn
Bit rate mode : Constant
Bit rate : 448 Kbps
Channel(s) : 6 channels
Channel positions : Front: L C R, Side: L R, LFE
Sampling rate : 48.0 KHz
Bit depth : 16 bits
Compression mode : Lossy
Stream size : 296 MiB (13%)
Title : MVO
Language : Russian
Default : Yes
Forced : No
Audio #2
ID : 3
Format : AC-3
Format/Info : Audio Coding 3
Mode extension : CM (complete main)
Format settings, Endianness : Big
Codec ID : A_AC3
Duration : 1h 32mn
Bit rate mode : Constant
Bit rate : 224 Kbps
Channel(s) : 2 channels
Channel positions : Front: L R
Sampling rate : 48.0 KHz
Bit depth : 16 bits
Compression mode : Lossy
Stream size : 148 MiB (7%)
Title : Volodarsky
Language : Russian
Default : No
Forced : No
Audio #3
ID : 4
Format : AC-3
Format/Info : Audio Coding 3
Mode extension : CM (complete main)
Format settings, Endianness : Big
Codec ID : A_AC3
Duration : 1h 32mn
Bit rate mode : Constant
Bit rate : 224 Kbps
Channel(s) : 2 channels
Channel positions : Front: L R
Sampling rate : 48.0 KHz
Bit depth : 16 bits
Compression mode : Lossy
Stream size : 148 MiB (7%)
Title : Vizgunov
Language : Russian
Default : No
Forced : No
Audio #4
ID : 5
Format : AC-3
Format/Info : Audio Coding 3
Mode extension : CM (complete main)
Format settings, Endianness : Big
Codec ID : A_AC3
Duration : 1h 32mn
Bit rate mode : Constant
Bit rate : 224 Kbps
Channel(s) : 2 channels
Channel positions : Front: L R
Sampling rate : 48.0 KHz
Bit depth : 16 bits
Compression mode : Lossy
Stream size : 148 MiB (7%)
Title : Belov
Language : Russian
Default : No
Forced : No

Скриншоты

Анаморфные скриншоты

Автор рипа: Bathory
[Профиль] [ЛС]
Показать сообщения:    

Текущее время: Сегодня 14:28

Часовой пояс: GMT



Вы не можете начинать темы
Вы не можете отвечать на сообщения
Вы не можете редактировать свои сообщения
Вы не можете удалять свои сообщения
Вы не можете голосовать в опросах
Вы не можете прикреплять файлы к сообщениям
Вы не можете скачивать файлы