Дом у озера / The Lake House (Алехандро Агрести / Alejandro Agresti) [2006, США, Австралия, фэнтези, драма, мелодрама, BDRip] AVO (Иванов)

 
Автор Сообщение

TorrentFilm ®

Пол:

Стаж: 1 год 11 месяцев

Сообщений: 7741



Награды: Нет

Торрент-статистика

Создавать темы 06-Апр-2016 00:09

[Цитировать]

Дом у озера / The Lake House Страна: США, Австралия
Жанр: фэнтези, драма, мелодрама
Год выпуска: 2006
Продолжительность: 01:38:33
Перевод: Авторский (одноголосый закадровый) Михаил Иванов
Cубтитры: нет
Режиссер: Алехандро Агрести / Alejandro Agresti
В ролях: Киану Ривз, Сандра Буллок, Кристофер Пламмер, Эбон Мосс-Бакрак, Виллеке ван Аммельрой, Дилан Уолш, Шохре Агдашлу, Линн Коллинз, Майк Бакарелла, Кевин Бреннан
Описание: Зима 2006 года. Ощутив необходимость изменить свою жизнь, доктор Кейт Форестер покидает свой необычный дом у озера в пригороде Иллинойса и устраивается на работу в чикагскую больницу. Единственное, о чем жалеет Кейт, так это о своем красивом доме с огромными окнами, который дарил ей душевное спокойствие. По дороге в город Кейт оставляет в почтовом ящике письмо, которое должен получить новый обитатель дома.
Когда же в него вселяется талантливый, но разочаровавшийся в жизни архитектор Алекс Уайлер, он видит этот дом совсем не таким, каким описала его в своем письме Кейт. Для Алекса это жилище имеет особое значение, поскольку оно было построено его отцом, знаменитым архитектором, который ради карьеры оставил свою семью. В итоге Алекс решает придать дому его первоначальный вид. Однажды странный случай заставляет Алекса написать ответное письмо Кейт; в процессе их переписки выясняется, что он живет в 2004 году, а она — в 2006-м. И лишь загадочный почтовый ящик служит неким соединяющим их мостиком.
В письмах они делятся друг с другом самым сокровенным, и постепенно между ними возникает заочный любовный роман. Испытывая неодолимое желание встретиться, Кейт и Алекс идут на все, чтобы добиться невозможного, рискуя при этом навсегда потерять друг друга…

Качество видео: [url=viewtopic.php?t=4822932]BDRip[/url]
Формат видео: AVI
Видео кодек: XviD
Аудио кодек: AC3
Видео: 720x304 (2.37:1), 23.976 fps, XviD build 73 ~1667 kbps avg, 0.32 bit/pixel
Аудио: 48 kHz, AC3 Dolby Digital, 3/2 (L,C,R,l,r) + LFE ch, ~448 kbps

Доп.инфо

за видеоряд спасибо _Flash
за Иванова спасибо budulai-8 и ребятам с Е180

MediaInfo

Полное имя : Дом у озера.avi
Формат : AVI
Формат/Информация : Audio Video Interleave
Размер файла : 1,46 Гбайт
Продолжительность : 1 ч. 38 м.
Общий поток : 2125 Кбит/сек
Программа кодирования : VirtualDubMod 1.5.10.3 | www.virtualdub-fr.org || (build 2550/release)
Библиотека кодирования : VirtualDubMod build 2550/release
Видео
Идентификатор : 0
Формат : MPEG-4 Visual
Профиль формата : Advanced Simple@L5
Параметр BVOP формата : 1
Параметр QPel формата : Нет
Параметр GMC формата : Без точки перехода
Параметр матрицы формата : Выборочная
Идентификатор кодека : XVID
Идентификатор кодека/Подсказка : XviD
Продолжительность : 1 ч. 38 м.
Битрейт : 1668 Кбит/сек
Ширина : 720 пикселей
Высота : 304 пикселя
Соотношение сторон : 2,35:1
Частота кадров : 23,976 кадра/сек
Цветовое пространство : YUV
Субдискретизация насыщенности : 4:2:0
Битовая глубина : 8 бит
Тип развёртки : Прогрессивная
Метод сжатия : С потерями
Бит/(Пиксели*Кадры) : 0.318
Размер потока : 1,15 Гбайт (78%)
Библиотека кодирования : XviD 73
Аудио
Идентификатор : 1
Формат : AC-3
Формат/Информация : Audio Coding 3
Расширение режима : CM (complete main)
Параметр Endianness формата : Big
Идентификатор кодека : 2000
Продолжительность : 1 ч. 38 м.
Вид битрейта : Постоянный
Битрейт : 448 Кбит/сек
Каналы : 6 каналов
Расположение каналов : Front: L C R, Side: L R, LFE
Частота : 48,0 КГц
Метод сжатия : С потерями
Размер потока : 316 Мбайт (21%)
Выравнивание : Разделение по промежуткам
Продолжительность промежутка : 42 мс. (1,00 видеокадр)
Время предзагрузки промежутка : 500 мс.

Скриншоты

[Профиль] [ЛС]
Показать сообщения:    

Текущее время: Сегодня 20:05

Часовой пояс: GMT



Вы не можете начинать темы
Вы не можете отвечать на сообщения
Вы не можете редактировать свои сообщения
Вы не можете удалять свои сообщения
Вы не можете голосовать в опросах
Вы не можете прикреплять файлы к сообщениям
Вы не можете скачивать файлы