Дом тигра / Tiger House (Томас Дэйли / Thomas Daley) [2015, Великобритания, Триллер, HDRip] VO (Петр Титов) + Original Eng

 
Автор Сообщение

TorrentFilm ®

Пол:

Стаж: 2 года

Сообщений: 7741



Награды: Нет

Торрент-статистика

Создавать темы 14-Сен-2015 00:09

[Цитировать]

Дом тигра / Tiger House
Страна: Великобритания
Жанр: Триллер
Год выпуска: 2015
Продолжительность: 01:22:40
Перевод: Одноголосый любительский (Петр Титов)
Cубтитры: нет
Оригинальная аудиодорожка: английский
Режиссер: Томас Дэйли/Thomas Daley
В ролях: Эд Скрейн, Кая Скоделарио, Дюгрей Скотт, Брэндон Оре, Лэнгли Кирквуд, Джули Саммерс, Дэниэл Бойд, Эндрю Брент
Описание: Когда героиня фильма Келли узнала, что неизвестные преступники ворвались в дачный дом ее лучшего друга и взяли его в плен вместе с родителями, то Келли поняла, что теперь на полицию можно не рассчитывать, потому что она просто не успеет осуществить спасательную операцию. Так как Келли была профессиональной гимнасткой, то ей не составило труда тайком проникнуть в дом с преступниками и заложниками, после чего героиня начала ориентироваться по ситуации. На хрупкие плечи девушки возложена очень огромная ответственность, потому что отважной героине придется самостоятельно справляться с вооруженными бандитами.
Сэмпл: https://www.sendspace.com/file/n9mvna
Качество видео: HDRip
Формат видео: AVI
Видео: Xvid 720x304 24fps, 1 896 Kbps
Аудио: MP3, 44100 Hz, 128 Kbps
Аудио 2: AC-3, 48000 Hz, 384 Kbps (Оригинал)

MediaInfo

General
Complete name : C:\скаченное\фильмы\Дом тигра\Дом тигра.avi
Format : AVI
Format/Info : Audio Video Interleave
File size : 1.40 GiB
Duration : 1h 22mn
Overall bit rate : 2 422 Kbps
Writing application : VirtualDubMod 1.5.10.2 (build 2540/release)
Writing library : VirtualDubMod build 2540/release
Video
ID : 0
Format : MPEG-4 Visual
Format profile : Advanced Simple@L5
Format settings, BVOP : 2
Format settings, QPel : No
Format settings, GMC : No warppoints
Format settings, Matrix : Default (H.263)
Muxing mode : Packed bitstream
Codec ID : XVID
Codec ID/Hint : XviD
Duration : 1h 22mn
Bit rate : 1 896 Kbps
Width : 720 pixels
Height : 304 pixels
Display aspect ratio : 2.35:1
Frame rate : 24.000 fps
Color space : YUV
Chroma subsampling : 4:2:0
Bit depth : 8 bits
Scan type : Progressive
Compression mode : Lossy
Bits/(Pixel*Frame) : 0.361
Stream size : 1.09 GiB (78%)
Writing library : XviD 66
Audio #1
ID : 1
Format : MPEG Audio
Format version : Version 1
Format profile : Layer 3
Codec ID : 55
Codec ID/Hint : MP3
Duration : 1h 22mn
Bit rate mode : Constant
Bit rate : 128 Kbps
Channel(s) : 2 channels
Sampling rate : 44.1 KHz
Compression mode : Lossy
Stream size : 75.7 MiB (5%)
Alignment : Split accross interleaves
Interleave, duration : 42 ms (1.00 video frame)
Interleave, preload duration : 500 ms
Audio #2
ID : 2
Format : AC-3
Format/Info : Audio Coding 3
Mode extension : CM (complete main)
Format settings, Endianness : Big
Codec ID : 2000
Duration : 1h 22mn
Bit rate mode : Constant
Bit rate : 384 Kbps
Channel(s) : 6 channels
Channel positions : Front: L C R, Side: L R, LFE
Sampling rate : 48.0 KHz
Bit depth : 16 bits
Compression mode : Lossy
Stream size : 227 MiB (16%)
Alignment : Aligned on interleaves
Interleave, duration : 42 ms (1.00 video frame)
Interleave, preload duration : 512 ms

Скриншот c названием фильма

Скриншоты

[Профиль] [ЛС]
Кто просматривает тему:

Показать сообщения:    

Текущее время: Сегодня 08:49

Часовой пояс: GMT



Вы не можете начинать темы
Вы не можете отвечать на сообщения
Вы не можете редактировать свои сообщения
Вы не можете удалять свои сообщения
Вы не можете голосовать в опросах
Вы не можете прикреплять файлы к сообщениям
Вы не можете скачивать файлы