Дом тигра / Tiger House (2015) WEB-DL 720p | L1

 
Автор Сообщение

Russian Mafia ®

Пол:

Стаж: 1 год 8 месяцев

Сообщений: 4260



Награды: 10 (Подробнее)

За внесенный вклад в развитие сайта (Количество: 1) Top Releaser 3 (Количество: 1) Mega Seeder 2 (Количество: 1)
Торрент-статистика

Создавать темы 12-Сен-2015 11:07

[Цитировать]

Информация о фильме
Название: Дом тигра
Оригинальное название: Tiger House
Год выхода: 2015
Жанр: боевик, триллер, драма, криминал
Режиссер: Томас Дэйли
В ролях: Эд Скрейн, Кая Скоделарио, Дюгрей Скотт, Брэндон Оре, Лэнгли Кирквуд, Джули Саммерс, Дэниэл Бойд, Эндрю Брент
О фильме: Когда героиня фильма Келли узнала, что неизвестные преступники ворвались в дачный дом ее лучшего друга и взяли его в плен вместе с родителями, то Келли поняла, что теперь на полицию можно не рассчитывать, потому что она просто не успеет осуществить спасательную операцию. Так как Келли была профессиональной гимнасткой, то ей не составило труда тайком проникнуть в дом с преступниками и заложниками, после чего героиня начала ориентироваться по ситуации. На хрупкие плечи девушки возложена очень огромная ответственность, потому что отважной героине придется самостоятельно справляться с вооруженными бандитами.

Выпущено: Великобритания, ЮАР / Altitude Film Entertainment, Creativity Capital, Glass Man Films, Industrial Development Corporation of South Africa, Ten10 Films
Продолжительность: 01:22:40
Озвучивание: Любительское (одноголосое) [Петр Титов]
Файл
Формат: MKV
Качество: WEB-DL 720p
Видео: 3905 kb/s, 1280x540
Аудио: Russian: AC3, 192 kb/s (2 ch) / English: AC3, 384 kb/s (6 ch)

MI

Format : Matroska
Format version : Version 4 / Version 2
File size : 2.64 GiB
Duration : 1h 22mn
Overall bit rate : 4 572 Kbps
Encoded date : UTC 2015-09-12 10:23:16
Writing application : mkvmerge v6.1.0 ('Old Devil') built on Mar 4 2013 09:10:42
Writing library : libebml v1.3.0 + libmatroska v1.4.0
Video
ID : 1
Format : AVC
Format/Info : Advanced Video Codec
Format profile : Main@L3.1
Format settings, CABAC : No
Format settings, ReFrames : 2 frames
Codec ID : V_MPEG4/ISO/AVC
Duration : 1h 22mn
Bit rate : 3 905 Kbps
Width : 1 280 pixels
Height : 540 pixels
Display aspect ratio : 2.40:1
Frame rate mode : Constant
Frame rate : 24.000 fps
Color space : YUV
Chroma subsampling : 4:2:0
Bit depth : 8 bits
Scan type : Progressive
Bits/(Pixel*Frame) : 0.235
Stream size : 2.26 GiB (85%)
Language : English
Default : Yes
Forced : No
Color range : Limited
Color primaries : BT.709
Transfer characteristics : BT.709
Matrix coefficients : BT.709
Audio #1
ID : 2
Format : AC-3
Format/Info : Audio Coding 3
Mode extension : CM (complete main)
Format settings, Endianness : Big
Codec ID : A_AC3
Duration : 1h 22mn
Bit rate mode : Constant
Bit rate : 192 Kbps
Channel(s) : 2 channels
Channel positions : Front: L R
Sampling rate : 44.1 KHz
Bit depth : 16 bits
Compression mode : Lossy
Stream size : 114 MiB (4%)
Language : Russian
Default : Yes
Forced : No
Audio #2
ID : 3
Format : AC-3
Format/Info : Audio Coding 3
Mode extension : CM (complete main)
Format settings, Endianness : Big
Codec ID : A_AC3
Duration : 1h 22mn
Bit rate mode : Constant
Bit rate : 384 Kbps
Channel(s) : 6 channels
Channel positions : Front: L C R, Side: L R, LFE
Sampling rate : 48.0 KHz
Bit depth : 16 bits
Compression mode : Lossy
Stream size : 227 MiB (8%)
Language : English
Default : No
Forced : No
Menu
00:00:00.000 : en:1
00:11:07.000 : en:2
00:21:46.000 : en:3
00:31:44.000 : en:4
00:39:42.000 : en:5
00:47:08.000 : en:6
00:58:17.000 : en:7
01:05:08.000 : en:8
01:10:16.000 : en:9
01:16:04.000 : en:10

Скриншоты

[Профиль] [ЛС]
Кто просматривает тему:

Показать сообщения:    

Текущее время: Сегодня 12:09

Часовой пояс: GMT



Вы не можете начинать темы
Вы не можете отвечать на сообщения
Вы не можете редактировать свои сообщения
Вы не можете удалять свои сообщения
Вы не можете голосовать в опросах
Вы не можете прикреплять файлы к сообщениям
Вы не можете скачивать файлы