Дом с паранормальными явлениями 2 / A Haunted House 2 (Майкл Тиддес / Michael Tiddes) [2014 г., США, ужасы, комедия, WEBRip] Dub (Line)

 
Автор Сообщение

Создавать темы 13-Июл-2014 16:35

Дом с паранормальными явлениями 2A Haunted House 2_____________________________________________________________________ Год выпуска: 2014
Производство: США
Жанр: ужасы, комедия
Перевод: Профессиональный (полное дублирование) [Line]
Субтитры: Отсутствуют
Оригинальная дорожка: Отсутствует
Продолжительность: 01:16:15
Режиссер: Майкл Тиддес / Michael Tiddes
В ролях: Марлон Уайанс, Джейми Прессли, Эссенс Эткинс, Гэбриел Иглесиас, Мисси Пайлm Эшли Рикардс, Эффион Крокетт, Стил Стеббинс, Рик Овертон, Хэйз МакАртур
Описание: Малькольм, изгнавший демонов из своей бывшей подружки, начинает новую жизнь с другой девушкой и ее двумя детьми. После переезда в дом своей мечты, с Малькольмом снова начинают случаться загадочные происшествия. И, похоже, паранормальные явления теперь преследуют его не только в собственном доме…
Рейтинг MPAA: PG-17
Возраст: 18+
Качество видео: WEBRip [сэмпл]
Видеокодек: XviD
Аудиокодек: AC3
Видео: 720x400 (1.80:1), 25 fps, XviD build 50, 2171 kbps avg, 0.30 bit/pixel
Аудио: 48 kHz, AC3 Dolby Digital, 2/0 (L,R) ch, 384 kbps

Скриншоты

MediaInfo


Общее
Полное имя : D:\Раздачи\Dom.s.paranormalnymi.javlenijami.2.2014.WEBRip.NNM-CLUB.avi
Формат : AVI
Формат/Информация : Audio Video Interleave
Размер файла : 1,37 Гбайт
Продолжительность : 1 ч. 16 м.
Общий поток : 2566 Кбит/сек
Программа кодирования : VirtualDubMod 1.5.10.2 (build 2540/release)
Библиотека кодирования : VirtualDubMod build 2540/release
Видео
Идентификатор : 0
Формат : MPEG-4 Visual
Профиль формата : Advanced Simple@L5
Параметр BVOP формата : 2
Параметр QPel формата : Нет
Параметр GMC формата : Без точки перехода
Параметр матрицы формата : Выборочная
Идентификатор кодека : XVID
Идентификатор кодека/Подсказка : XviD
Продолжительность : 1 ч. 16 м.
Битрейт : 2172 Кбит/сек
Ширина : 720 пикселей
Высота : 400 пикселей
Соотношение сторон : 16:9
Частота кадров : 25,000 кадров/сек
Цветовое пространство : YUV
Субдискретизация насыщенности : 4:2:0
Битовая глубина : 8 бит
Тип развёртки : Прогрессивная
Метод сжатия : С потерями
Бит/(Пиксели*Кадры) : 0.302
Размер потока : 1,16 Гбайт (85%)
Библиотека кодирования : XviD 1.2.1 (UTC 2008-12-04)
Аудио
Идентификатор : 1
Формат : AC-3
Формат/Информация : Audio Coding 3
Расширение режима : CM (complete main)
Параметр Endianness формата : Big
Идентификатор кодека : 2000
Продолжительность : 1 ч. 16 м.
Вид битрейта : Постоянный
Битрейт : 384 Кбит/сек
Каналы : 2 канала
Расположение каналов : Front: L R
Частота : 48,0 КГц
Битовая глубина : 16 бит
Метод сжатия : С потерями
Размер потока : 209 Мбайт (15%)
Выравнивание : Разделение по промежуткам
Продолжительность промежутка : 40 мс. (1,00 видеокадр)
Время предзагрузки промежутка : 500 мс.
 
Показать сообщения:    

Текущее время: Сегодня 00:35

Часовой пояс: GMT



Вы не можете начинать темы
Вы не можете отвечать на сообщения
Вы не можете редактировать свои сообщения
Вы не можете удалять свои сообщения
Вы не можете голосовать в опросах
Вы не можете прикреплять файлы к сообщениям
Вы не можете скачивать файлы