Дом с лилиями [01-24 из 24] (2014) WEB-DLRip от Generalfilm | КПК

 
Автор Сообщение

Белочка ®

Пол:

Стаж: 5 лет 1 месяц

Сообщений: 2089



Награды: 1 (Подробнее)

Girls (Количество: 1)
Торрент-статистика

Создавать темы 04-Ноя-2014 17:48

[Цитировать]

Информация о фильме
Оригинальное название: Дом с лилиями
Год выпуска: 2014
Жанр: Семейная сага
Режиссер: Владимир Краснопольский, Валерий Усков
В ролях: Сергей Маховиков, Дарья Мороз, Николай Добрынин, Олеся Судзиловская, Евгений Князев, Виктор Раков, Борис Химичев, Сергей Баталов, Михаил Жигалов, Анна Горшкова, Денис Матросов, Михаил Пшеничный, Олеся Жураковская, Валентина Лукащук, Алексей Фатеев, Елена Радевич, Андрей Франчук, Елена Турбал, Дария Боцманова, Василий Киба, Сергей Никитин, Виктория Билан, Михаил Романов, Мария Довгань, Диана Довгань
О фильме:
"Дом с лилиями" – семейная сага о судьбе героя-фронтовика Михаила Говорова, его любимых женщинах и детях, предоставляющая зрителю возможность проследить судьбу нескольких поколений советских и постсоветских людей, начиная с середины ХХ века до наших дней. После окончания Великой Отечественной войны герой-фронтовик коммунист Михаил Говоров занимает высокую партийную должность в одном из областных центров и со всей семьей переезжает в загородный дом. На первых порах ни сам Говоров, ни члены его семье не обращают особого внимания на легенды, которыми окутано их новое место жительства. По преданию, на дом наложено проклятие, и ни его владельцы, ни их дети и внуки не будут счастливы в любви.

Страна: Россия, Украина
Студия: FILM.UA совместно с Фаворит-фильм по заказу Первого канала
Продолжительность: 24 х ~ 00:55:00
Перевод: Не требуется
Файл
Формат: MP4
Качество: WEB-DLRip | КПК
Видео: MPEG-4 AVC (x264), 640x360, ~500 kbps, 25.000 fps
Аудио: AAC LC, 44.1 KHz, 2 ch, 128 Kbps
Субтитры: Нет
Семпл

Скриншоты

MI

General
Complete name : E:KinoDom.S.Liliyami.2014.AVC.WEB-DLRip.KPK.GeneralfilmDom.S.Liliyami.(03.seriya.iz.24).2014.AVC.WEB-DLRip.KPK.Generalfilm.mp4
Format : MPEG-4
Format profile : Base Media
Codec ID : isom
File size : 245 MiB
Duration : 54mn 44s
Overall bit rate mode : Variable
Overall bit rate : 626 Kbps
Encoded date : UTC 2014-10-15 15:28:42
Tagged date : UTC 2014-10-15 15:28:42
Video
ID : 1
Format : AVC
Format/Info : Advanced Video Codec
Format profile : Baseline@L4.1
Format settings, CABAC : No
Format settings, ReFrames : 6 frames
Codec ID : avc1
Codec ID/Info : Advanced Video Coding
Duration : 54mn 44s
Bit rate : 500 Kbps
Maximum bit rate : 3 668 Kbps
Width : 640 pixels
Height : 360 pixels
Display aspect ratio : 16:9
Frame rate mode : Constant
Frame rate : 25.000 fps
Color space : YUV
Chroma subsampling : 4:2:0
Bit depth : 8 bits
Scan type : Progressive
Bits/(Pixel*Frame) : 0.087
Stream size : 195 MiB (79%)
Writing library : x264 core 125 r2200 999b753
Encoding settings : cabac=0 / ref=6 / deblock=1:-1:-1 / analyse=0x1:0x111 / me=umh / subme=7 / psy=1 / psy_rd=1.00:0.00 / mixed_ref=0 / me_range=16 / chroma_me=1 / trellis=1 / 8x8dct=0 / cqm=0 / deadzone=21,11 / fast_pskip=0 / chroma_qp_offset=-2 / threads=12 / lookahead_threads=2 / sliced_threads=0 / nr=0 / decimate=1 / interlaced=0 / bluray_compat=0 / constrained_intra=0 / bframes=0 / weightp=0 / keyint=250 / keyint_min=25 / scenecut=40 / intra_refresh=0 / rc_lookahead=60 / rc=2pass / mbtree=1 / bitrate=500 / ratetol=1.0 / qcomp=0.60 / qpmin=0 / qpmax=69 / qpstep=4 / cplxblur=20.0 / qblur=0.5 / ip_ratio=1.40 / aq=1:1.00
Encoded date : UTC 2014-10-15 15:28:42
Tagged date : UTC 2014-10-15 15:28:47
Audio
ID : 2
Format : AAC
Format/Info : Advanced Audio Codec
Format profile : LC
Codec ID : 40
Duration : 54mn 44s
Bit rate mode : Variable
Bit rate : 128 Kbps
Maximum bit rate : 141 Kbps
Channel count : 2 channels
Channel positions : Front: L R
Sampling rate : 44.1 KHz
Compression mode : Lossy
Stream size : 49.3 MiB (20%)
Encoded date : UTC 2014-10-15 15:28:46
Tagged date : UTC 2014-10-15 15:28:47
Релиз от: Спс за исходник:
[Профиль] [ЛС]
Показать сообщения:    

Текущее время: Сегодня 06:15

Часовой пояс: GMT



Вы не можете начинать темы
Вы не можете отвечать на сообщения
Вы не можете редактировать свои сообщения
Вы не можете удалять свои сообщения
Вы не можете голосовать в опросах
Вы не можете прикреплять файлы к сообщениям
Вы не можете скачивать файлы